<?xml version="1.0" standalone="no"?>
<!DOCTYPE svg PUBLIC "-//W3C//DTD SVG 1.1//EN" "http://www.w3.org/Graphics/SVG/1.1/DTD/svg11.dtd" >
<!--
2017-9-23: Created with FontForge (http://fontforge.org)
-->
<svg xmlns="http://www.w3.org/2000/svg" xmlns:xlink="http://www.w3.org/1999/xlink" version="1.1">
<metadata>
Created by FontForge 20160405 at Sat Sep 23 06:12:53 2017
 By Apache
Copyright (c) 2017, Apache
</metadata>
<defs>
<font id="Flaticon" horiz-adv-x="512" >
  <font-face 
    font-family="Flaticon"
    font-weight="400"
    font-stretch="normal"
    units-per-em="512"
    panose-1="2 0 5 3 0 0 0 0 0 0"
    ascent="448"
    descent="-64"
    bbox="-0.000968775 -64.001 512.007 448"
    underline-thickness="25.6"
    underline-position="-51.2"
    unicode-range="U+0020-F122"
  />
    <missing-glyph />
    <glyph glyph-name="space" unicode=" " horiz-adv-x="200" 
 />
    <glyph glyph-name="uniF104" unicode="&#xf104;" 
d="M169.041 343.698c-2.22168 0 -4.44336 0.84082 -6.13574 2.54199c-3.39258 3.39355 -3.39258 8.87793 0 12.2715l86.9375 86.9453c0.798828 0.798828 1.76172 1.44043 2.8291 1.88379c2.12598 0.875977 4.5127 0.875977 6.62988 0
c1.07617 -0.443359 2.04004 -1.07617 2.83789 -1.88379l86.5898 -86.5898c3.39355 -3.39355 3.39355 -8.87793 0 -12.2705c-3.39258 -3.39355 -8.87695 -3.39355 -12.2705 0l-71.7852 71.7852v-308.819c0 -4.79883 -3.87891 -8.67871 -8.67773 -8.67871
c-4.7998 0 -8.67871 3.87988 -8.67871 8.67871v308.819l-72.1406 -72.1416c-1.69238 -1.69238 -3.91406 -2.54199 -6.13574 -2.54199zM316.742 309.159h130.172v-373.159h-381.837v373.159h130.172c4.79883 0 8.67773 -3.87988 8.67773 -8.67871
s-3.87891 -8.67773 -8.67773 -8.67773h-112.815v-338.446h347.124v338.446h-112.815c-4.79883 0 -8.67773 3.87891 -8.67773 8.67773s3.87891 8.67871 8.67773 8.67871z" />
    <glyph glyph-name="uniF10F" unicode="&#xf10f;" 
d="M456.487 232.918c30.6309 0 55.4336 -24.8027 55.4971 -55.4336v-158.382c0 -30.6465 -24.8027 -55.4336 -55.4336 -55.4336h-401.117c-30.6309 0 -55.4336 24.7871 -55.4336 55.4336v158.382c0 30.6152 24.8027 55.4336 55.4336 55.4336h63.7012l74.376 101.095
c-2.12207 6.44629 -3.54785 13.1777 -3.54785 20.3203c0 36.4434 29.5693 65.998 66.0137 65.998c36.459 0 65.9814 -29.5547 65.9814 -65.998c0 -7.14258 -1.42578 -13.8896 -3.54785 -20.3203l74.3604 -101.095h63.7168zM146.74 71.5586
c-3.23047 3.64258 -7.9502 5.74902 -14.1904 6.33496v0.427734c6.65137 1.17285 11.3711 3.50098 14.1904 6.9375c3.12012 3.7373 4.7041 11.498 4.7041 23.3457c0 10.8965 -2.10645 18.752 -6.38281 23.5664c-4.91016 5.41699 -14.2539 8.10938 -28.0488 8.10938h-52.4248
v-106.591h20.4473v35.2715h26.4814h2.12207c3.31055 0 5.9707 -0.22168 7.95117 -0.680664c1.97949 -0.475586 3.6582 -1.53613 5.16309 -3.18359c1.45703 -1.64746 2.37598 -3.6582 2.72363 -6.09766c0.317383 -2.42285 0.506836 -5.51172 0.506836 -9.21777v-16.0596
h20.5898v19.7344c0 7.9502 -1.2666 13.9844 -3.83301 18.1025zM211.804 305.536l-53.4062 -72.6338h195.015l-53.4219 72.6338c-11.6885 -10.5801 -27.0674 -17.2002 -44.0771 -17.2002c-17.042 0 -32.3896 6.62012 -44.1094 17.2002zM239.948 33.7217v17.4688h-53.0107
v28.2715h50.0176v16.6143h-50.0176v26.7344h52.71v17.4854h-73.1885v-106.574h73.4893zM354.87 33.7217h0.015625v106.559h-20.6055l1.67871 -89.1211h-0.538086l-45.7725 89.1211h-33.9893v-106.591h20.6211l-0.553711 44.917l-1.14062 44.2041h0.839844l45.2021 -89.0889
h34.2422zM447.27 122.811v0v17.4854h-82.9922v-17.4854h31.1221v-89.0889h20.4785v89.0889h31.3916zM128.432 119.01c1.64746 -2.3916 2.42285 -6.93652 2.42285 -13.668c0 -7.26953 -0.99707 -12.2119 -2.97754 -14.793
c-1.52051 -1.55273 -3.24609 -2.62891 -5.16309 -3.21484c-1.90039 -0.586914 -4.67188 -0.871094 -8.23535 -0.871094h-29.4434v36.3477h28.8574c3.7373 0 6.77832 -0.22168 9.09082 -0.680664c2.29688 -0.458984 4.11816 -1.50488 5.44824 -3.12012z" />
    <glyph glyph-name="uniF11C" unicode="&#xf11c;" 
d="M264.725 90.0146c-4.49219 2.19434 -7.31445 6.6875 -7.31445 11.5986v87.2471c-81.6055 -0.313477 -137.819 -6.16406 -206.154 -126.534c-2.40332 -4.0752 -6.6875 -6.47852 -11.1807 -6.47852c-1.04492 0 -2.19434 0.104492 -3.23926 0.417969
c-5.64258 1.46289 -9.50781 6.47852 -9.50781 12.3291v10.1357c-0.417969 85.0527 -1.3584 260.593 230.082 268.952v87.4561c0 5.01562 2.82129 9.50879 7.31445 11.5977c4.49219 2.19434 9.7168 1.46289 13.583 -1.67188l201.766 -166.553
c3.03027 -2.40332 4.70215 -5.95605 4.70215 -9.82227c0 -3.76172 -1.67188 -7.41895 -4.59766 -9.82227l-201.87 -167.181c-3.76172 -3.13379 -9.09082 -3.76074 -13.583 -1.67188zM53.1377 113.733c65.7227 95.3975 127.475 100.727 217.021 100.831
c3.44824 0 6.6875 -1.3584 9.09082 -3.76172s3.76172 -5.74609 3.76172 -9.08984v-72.8281l168.853 139.805l-168.957 139.387v-72.9326c0 -7.00098 -5.64258 -12.6426 -12.6436 -12.7471c-96.2334 -0.94043 -158.612 -30.4062 -190.795 -89.9648
c-20.2705 -37.4062 -25.1807 -81.6045 -26.3301 -118.698zM482.269 -51.2529c0 -7 -5.74609 -12.7471 -12.8516 -12.7471h-429.341c-7.10547 0 -12.8516 5.74707 -12.8516 12.8516v56.2148c0 7.10547 5.74609 12.8525 12.8516 12.8525s12.8525 -5.74707 12.8525 -12.8525
v-43.4668h403.637v223.29c0 7.10547 5.74609 12.8525 12.8516 12.8525s12.8516 -5.74707 12.8516 -12.8525v-236.143z" />
    <glyph glyph-name="uniF119" unicode="&#xf119;" 
d="M444.875 338.208c2 -2 3.125 -4.70801 3.125 -7.54102v-352c0 -23.5322 -19.1465 -42.667 -42.666 -42.667h-298.667c-23.5205 0 -42.667 19.1348 -42.667 42.666v426.667c0 23.5322 19.1465 42.667 42.666 42.667h224c2.83398 0 5.54199 -1.125 7.54199 -3.125z
M341.333 411.583v-48.917c0 -11.7598 9.56152 -21.333 21.333 -21.333h48.917zM426.667 -21.333v341.333h-64c-23.5205 0 -42.667 19.1348 -42.667 42.666v64h-213.333c-11.7695 0 -21.333 -9.57324 -21.333 -21.333v-426.666c0 -11.7598 9.5625 -21.333 21.333 -21.333
h298.667c11.7695 0 21.333 9.57324 21.333 21.333zM373.333 149.333c5.89551 0 10.667 -4.77148 10.668 -10.667c0 -5.89648 -4.77051 -10.667 -10.667 -10.667h-234.667c-5.89551 0 -10.667 4.77051 -10.667 10.667c0 5.89551 4.77148 10.667 10.667 10.667h234.666z
M373.333 213.333c5.89551 0 10.667 -4.77148 10.668 -10.667c0 -5.89648 -4.77051 -10.667 -10.667 -10.667h-234.667c-5.89551 0 -10.667 4.77051 -10.667 10.667c0 5.89551 4.77148 10.667 10.667 10.667h234.666zM373.333 85.333
c5.89551 0 10.667 -4.77148 10.668 -10.667c0 -5.89648 -4.77051 -10.667 -10.667 -10.667h-234.667c-5.89551 0 -10.667 4.77051 -10.667 10.667c0 5.89551 4.77148 10.667 10.667 10.667h234.666zM266.667 21.333c5.89648 0 10.666 -4.77148 10.667 -10.667
c0 -5.89648 -4.77051 -10.667 -10.667 -10.667h-128c-5.89551 0 -10.667 4.77051 -10.667 10.667c0 5.89551 4.77148 10.667 10.667 10.667h128zM234.667 266.667c0 5.89453 4.77148 10.666 10.667 10.667h128c5.89648 0 10.667 -4.77051 10.667 -10.667
c0 -5.89551 -4.77051 -10.667 -10.667 -10.667h-128c-5.89551 0 -10.667 4.77148 -10.667 10.667zM160 277.333c5.875 0 10.667 4.78125 10.667 10.667s-4.79199 10.667 -10.667 10.667c-17.6465 0 -32 14.3545 -32 32c0 13.8877 8.94434 25.6172 21.332 30.0361v1.96484
c0 5.89648 4.77051 10.667 10.667 10.667c5.89551 0 10.667 -4.77051 10.667 -10.667h10.667c5.89551 0 10.667 -4.77051 10.667 -10.667c0 -5.89551 -4.77148 -10.667 -10.667 -10.667h-21.333c-5.875 0 -10.667 -4.78223 -10.667 -10.667
c0 -5.88574 4.79199 -10.667 10.667 -10.667c17.6465 0 32 -14.3535 32 -32c0 -13.8877 -8.94434 -25.6172 -21.332 -30.0361v-1.96484c0 -5.89648 -4.77051 -10.667 -10.667 -10.667c-5.89551 0 -10.667 4.77051 -10.667 10.667h-10.667
c-5.89551 0 -10.667 4.77051 -10.667 10.667c0 5.89551 4.77148 10.667 10.667 10.667h21.333z" />
    <glyph glyph-name="uniF120" unicode="&#xf120;" 
d="M378.022 415.995c5.81152 0 10.5225 -4.71191 10.5225 -10.5215v-458.951c0 -5.81055 -4.71191 -10.5225 -10.5225 -10.5225h-95.0791h-53.8887h-95.0791c-5.80957 0 -10.5225 4.71191 -10.5225 10.5225v458.951c0 5.80957 4.71289 10.5215 10.5225 10.5215h22.9395
v21.4824c0 5.8125 4.71094 10.5225 10.5225 10.5225h177.121c5.8125 0 10.5225 -4.70996 10.5225 -10.5225v-21.4824h22.9414zM272.423 -42.9561v72.3887h-32.8447v-72.3887h32.8447zM367.501 -42.9561v437.907h-223.003v-437.907h74.0342v82.9102
c0 5.81055 4.71289 10.5225 10.5225 10.5225h53.8887c5.81055 0 10.5225 -4.71191 10.5225 -10.5225v-82.9102h74.0352zM334.039 426.956h-156.078v-10.9609h156.078v10.9609zM193.32 345.569c5.80957 0 10.5215 -4.70996 10.5215 -10.5215v-15.1064
c0 -5.81055 -4.71191 -10.5225 -10.5215 -10.5225c-5.81055 0 -10.5225 4.71191 -10.5225 10.5225v15.1064c0 5.80957 4.71191 10.5215 10.5225 10.5215zM235.106 345.569c5.81055 0 10.5225 -4.70996 10.5225 -10.5215v-15.1064
c0 -5.81055 -4.71191 -10.5225 -10.5225 -10.5225c-5.80957 0 -10.5215 4.71191 -10.5215 10.5225v15.1064c0 5.80957 4.71191 10.5215 10.5215 10.5215zM276.894 345.569c5.80957 0 10.5215 -4.70996 10.5215 -10.5215v-15.1064
c0 -5.81055 -4.71191 -10.5225 -10.5215 -10.5225c-5.81055 0 -10.5225 4.71191 -10.5225 10.5225v15.1064c0 5.80957 4.71191 10.5215 10.5225 10.5215zM318.68 345.569c5.81055 0 10.5225 -4.70996 10.5225 -10.5215v-15.1064
c0 -5.81055 -4.71191 -10.5225 -10.5225 -10.5225c-5.80957 0 -10.5215 4.71191 -10.5215 10.5225v15.1064c0 5.80957 4.71191 10.5215 10.5215 10.5215zM193.32 293.587c5.80957 0 10.5215 -4.70996 10.5215 -10.5225v-15.1055
c0 -5.81055 -4.71191 -10.5225 -10.5215 -10.5225c-5.81055 0 -10.5225 4.71191 -10.5225 10.5225v15.1055c0 5.81055 4.71191 10.5225 10.5225 10.5225zM235.106 293.587c5.81055 0 10.5225 -4.70996 10.5225 -10.5225v-15.1055
c0 -5.81055 -4.71191 -10.5225 -10.5225 -10.5225c-5.80957 0 -10.5215 4.71191 -10.5215 10.5225v15.1055c0 5.81055 4.71191 10.5225 10.5215 10.5225zM276.894 293.587c5.80957 0 10.5215 -4.70996 10.5215 -10.5225v-15.1055
c0 -5.81055 -4.71191 -10.5225 -10.5215 -10.5225c-5.81055 0 -10.5225 4.71191 -10.5225 10.5225v15.1055c0 5.81055 4.71191 10.5225 10.5225 10.5225zM318.68 293.587c5.81055 0 10.5225 -4.70996 10.5225 -10.5225v-15.1055
c0 -5.81055 -4.71191 -10.5225 -10.5225 -10.5225c-5.80957 0 -10.5215 4.71191 -10.5215 10.5225v15.1055c0 5.81055 4.71191 10.5225 10.5215 10.5225zM193.32 241.604c5.80957 0 10.5215 -4.70996 10.5215 -10.5225v-15.1055
c0 -5.81055 -4.71191 -10.5225 -10.5215 -10.5225c-5.81055 0 -10.5225 4.71191 -10.5225 10.5225v15.1055c0 5.81055 4.71191 10.5225 10.5225 10.5225zM235.106 241.604c5.81055 0 10.5225 -4.70996 10.5225 -10.5225v-15.1055
c0 -5.81055 -4.71191 -10.5225 -10.5225 -10.5225c-5.80957 0 -10.5215 4.71191 -10.5215 10.5225v15.1055c0 5.81055 4.71191 10.5225 10.5215 10.5225zM276.894 241.604c5.80957 0 10.5215 -4.70996 10.5215 -10.5225v-15.1055
c0 -5.81055 -4.71191 -10.5225 -10.5215 -10.5225c-5.81055 0 -10.5225 4.71191 -10.5225 10.5225v15.1055c0 5.81055 4.71191 10.5225 10.5225 10.5225zM318.68 241.604c5.81055 0 10.5225 -4.70996 10.5225 -10.5225v-15.1055
c0 -5.81055 -4.71191 -10.5225 -10.5225 -10.5225c-5.80957 0 -10.5215 4.71191 -10.5215 10.5225v15.1055c0 5.81055 4.71191 10.5225 10.5215 10.5225zM193.32 189.622c5.80957 0 10.5215 -4.71191 10.5215 -10.5225v-15.1055
c0 -5.81055 -4.71191 -10.5225 -10.5215 -10.5225c-5.81055 0 -10.5225 4.71191 -10.5225 10.5225v15.1055c0 5.81055 4.71191 10.5225 10.5225 10.5225zM235.106 189.622c5.81055 0 10.5225 -4.71191 10.5225 -10.5225v-15.1055
c0 -5.81055 -4.71191 -10.5225 -10.5225 -10.5225c-5.80957 0 -10.5215 4.71191 -10.5215 10.5225v15.1055c0 5.81055 4.71191 10.5225 10.5215 10.5225zM276.894 189.622c5.80957 0 10.5215 -4.71191 10.5215 -10.5225v-15.1055
c0 -5.81055 -4.71191 -10.5225 -10.5215 -10.5225c-5.81055 0 -10.5225 4.71191 -10.5225 10.5225v15.1055c0 5.81055 4.71191 10.5225 10.5225 10.5225zM318.68 189.622c5.81055 0 10.5225 -4.71191 10.5225 -10.5225v-15.1055
c0 -5.81055 -4.71191 -10.5225 -10.5225 -10.5225c-5.80957 0 -10.5215 4.71191 -10.5215 10.5225v15.1055c0 5.81055 4.71191 10.5225 10.5215 10.5225zM193.32 137.638c5.80957 0 10.5215 -4.70996 10.5215 -10.5225v-15.1055
c0 -5.81055 -4.71191 -10.5225 -10.5215 -10.5225c-5.81055 0 -10.5225 4.71191 -10.5225 10.5225v15.1055c0 5.81055 4.71191 10.5225 10.5225 10.5225zM235.106 137.638c5.81055 0 10.5225 -4.70996 10.5225 -10.5225v-15.1055
c0 -5.81055 -4.71191 -10.5225 -10.5225 -10.5225c-5.80957 0 -10.5215 4.71191 -10.5215 10.5225v15.1055c0 5.81055 4.71191 10.5225 10.5215 10.5225zM276.894 137.638c5.80957 0 10.5215 -4.70996 10.5215 -10.5225v-15.1055
c0 -5.81055 -4.71191 -10.5225 -10.5215 -10.5225c-5.81055 0 -10.5225 4.71191 -10.5225 10.5225v15.1055c0 5.81055 4.71191 10.5225 10.5225 10.5225zM318.68 137.638c5.81055 0 10.5225 -4.70996 10.5225 -10.5225v-15.1055
c0 -5.81055 -4.71191 -10.5225 -10.5225 -10.5225c-5.80957 0 -10.5215 4.71191 -10.5215 10.5225v15.1055c0 5.81055 4.71191 10.5225 10.5215 10.5225z" />
    <glyph glyph-name="uniF115" unicode="&#xf115;" 
d="M256 448c112.579 0 203.863 -91.2539 203.863 -203.833c0 -159.254 -203.863 -308.167 -203.863 -308.167s-203.863 138.709 -203.863 308.151c0 112.58 91.2842 203.849 203.863 203.849zM256 146.993c53.666 0 97.1592 43.4922 97.1738 97.1582
c0 53.666 -43.5078 97.2051 -97.1738 97.1895c-53.6963 0 -97.2051 -43.5078 -97.2051 -97.1738s43.5088 -97.1738 97.2051 -97.1738z" />
    <glyph glyph-name="uniF10C" unicode="&#xf10c;" 
d="M505.828 283.355c3.80566 -2.14551 6.17188 -6.19238 6.17188 -10.5625v-310.977h-60.1182v260.516h-391.764v-260.516h-60.1182v310.977c0 4.37012 2.36621 8.41797 6.17383 10.5625l243.879 137.298c3.62598 2.04004 8.26758 2.04004 11.8936 0zM169.791 264.6v14.7197
c0 2.90332 -2.35352 5.25586 -5.25684 5.25586h-48.3613c-2.90527 0 -5.25684 -2.35254 -5.25684 -5.25586v-14.7197c0 -2.90137 2.35254 -5.25488 5.25684 -5.25488h48.3613c2.9043 0 5.25684 2.35352 5.25684 5.25488zM285.438 264.6v14.7197
c0 2.90332 -2.35352 5.25586 -5.25781 5.25586h-48.3584c-2.9043 0 -5.25781 -2.35254 -5.25781 -5.25586v-14.7197c0 -2.90137 2.35352 -5.25488 5.25781 -5.25488h48.3584c2.9043 0 5.25781 2.35352 5.25781 5.25488zM401.084 264.6v14.7197
c0 2.90332 -2.35059 5.25586 -5.25488 5.25586h-48.3623c-2.90332 0 -5.25781 -2.35254 -5.25781 -5.25586v-14.7197c0 -2.90137 2.35449 -5.25488 5.25781 -5.25488h48.3623c2.9043 0 5.25488 2.35352 5.25488 5.25488zM418.736 184.7
c2.03125 0 3.67969 -1.64746 3.67969 -3.67871v-28.1016c0 -2.0332 -1.64941 -3.68164 -3.67969 -3.68164h-325.472c-2.03125 0 -3.68066 1.64941 -3.68066 3.68164v28.1016c0 2.03125 1.64941 3.67871 3.68066 3.67871h325.472zM418.736 121.779
c2.03125 0 3.67969 -1.64648 3.67969 -3.67871v-28.1025c0 -2.0332 -1.64941 -3.67969 -3.67969 -3.67969h-325.472c-2.03125 0 -3.68066 1.64746 -3.68066 3.67969v28.1025c0 2.03223 1.64941 3.67871 3.68066 3.67871h325.472zM418.736 58.8613
c2.03125 0 3.67969 -1.64648 3.67969 -3.67969v-28.1045c0 -2.03223 -1.64941 -3.67773 -3.67969 -3.67773h-325.472c-2.03125 0 -3.68066 1.64648 -3.68066 3.67773v28.1045c0 2.0332 1.64941 3.67969 3.68066 3.67969h325.472z" />
    <glyph glyph-name="uniF11E" unicode="&#xf11e;" 
d="M506.943 248.786l-137.019 -137.019l-194.158 194.159l137.02 137.018c6.74121 6.74023 17.6719 6.74023 24.4131 0l17.6396 -17.6377c5.07422 -5.0752 6.48047 -12.7588 3.53027 -19.3008l-4.65234 -10.3232l9.7168 4.67871
c6.60742 3.18359 14.5068 1.84082 19.6953 -3.34668l56.1953 -56.1963c5.83398 -5.83105 6.72461 -14.9756 2.12891 -21.8242l-36.7979 -54.8398l54.4717 37.0225c6.85254 4.65625 16.0508 3.78711 21.9092 -2.07129l25.9072 -25.9062
c6.74121 -6.74219 6.74121 -17.6729 0 -24.4131zM150.254 280.412l194.158 -194.156l-39.666 -39.666c-6.74023 -6.74023 -17.6719 -6.74023 -24.4131 0l-37.625 37.626c-7.23242 7.23047 -17.2354 10.7295 -27.458 9.61426
c-10.1904 -1.12012 -19.1943 -6.71387 -24.6992 -15.3516c-70.4707 -110.553 -80.7803 -120.863 -84.168 -124.25c-24.2783 -24.2812 -63.8262 -24.3291 -88.1543 0c-24.3047 24.3057 -24.3047 63.8506 0 88.1543c3.38574 3.38672 13.6914 13.6934 124.25 84.1689
c8.6582 5.51953 14.2646 14.5254 15.3828 24.7119c1.11816 10.1934 -2.39746 20.1973 -9.64648 27.4463l-37.626 37.626c-3.23828 3.23633 -5.05664 7.62793 -5.05664 12.2061c0 4.57715 1.81934 8.96777 5.05664 12.2051zM80.6162 -17.8896
c9.5293 9.5293 9.5293 24.9785 0 34.5059c-9.52734 9.5293 -24.9766 9.5293 -34.5059 0c-9.52832 -9.52734 -9.52832 -24.9766 0 -34.5059c9.52832 -9.52832 24.9775 -9.52832 34.5059 0z" />
    <glyph glyph-name="uniF113" unicode="&#xf113;" 
d="M497.946 433.942c18.75 -18.75 18.7188 -49.1406 0 -67.8916l-22.626 -22.625l-67.9062 67.8916l22.625 22.625c18.749 18.7344 49.1562 18.751 67.9072 0zM158.535 162.409l226.254 226.284l67.9062 -67.8916l-226.269 -226.269l-90.5 -22.625zM384.007 206.848
l64.001 64.0166v-334.863h-448.005v448.005h334.846l-63.9844 -64.001h-206.86v-320.003h320.003v206.846z" />
    <glyph glyph-name="uniF121" unicode="&#xf121;" 
d="M347.168 83.3223c40.6172 0 73.6611 -33.042 73.6611 -73.6592s-33.0439 -73.6611 -73.6611 -73.6611s-73.6592 33.0459 -73.6592 73.6611s33.042 73.6592 73.6592 73.6592zM347.168 -43.1621c29.1279 0 52.8232 23.6982 52.8232 52.8232
s-23.6963 52.8213 -52.8232 52.8213c-29.125 0 -52.8213 -23.6943 -52.8213 -52.8213c0 -29.126 23.6963 -52.8232 52.8213 -52.8232zM224.995 257.735c-2.66699 0 -5.33301 1.01758 -7.36816 3.05273c-4.06836 4.06836 -4.06836 10.665 0.00195312 14.7344l64.4287 64.4258
c-5.44922 10.2734 -8.54883 21.9746 -8.54883 34.3906c0 40.6172 33.042 73.6611 73.6592 73.6611s73.6631 -33.0479 73.6631 -73.6631s-33.0439 -73.6592 -73.6611 -73.6592c-20.6279 0 -39.2891 8.5332 -52.6738 22.2412l-62.1348 -62.1328
c-2.0332 -2.0332 -4.7002 -3.05078 -7.36621 -3.05078zM347.168 427.162c-29.125 0 -52.8213 -23.6982 -52.8213 -52.8232s23.6963 -52.8213 52.8213 -52.8213c29.127 0 52.8232 23.6943 52.8232 52.8213c0 29.126 -23.6963 52.8232 -52.8232 52.8232zM274.21 74.7617
c4.06836 -4.06836 4.06836 -10.666 -0.00195312 -14.7344c-2.0332 -2.0332 -4.7002 -3.05078 -7.36621 -3.05078c-2.66504 0 -5.33301 1.01758 -7.36621 3.05078l-64.7012 64.6992c-9.1543 -4.09277 -19.2842 -6.38672 -29.9443 -6.38672
c-40.6152 0 -73.6611 33.0439 -73.6611 73.6611s33.0439 73.6611 73.6611 73.6611s73.6602 -33.0439 73.6602 -73.6611c0 -22.3057 -9.97852 -42.3125 -25.6904 -55.8311zM112.007 192.001c0 -29.127 23.6973 -52.8232 52.8232 -52.8232
c29.127 0 52.8213 23.6963 52.8213 52.8232s-23.6963 52.8232 -52.8213 52.8232c-29.126 0 -52.8232 -23.6963 -52.8232 -52.8232z" />
    <glyph glyph-name="uniF11D" unicode="&#xf11d;" 
d="M85.333 230.698c-4.71875 0 -8.5332 3.82324 -8.5332 8.53418c0 4.70996 3.81445 8.5332 8.5332 8.5332h110.934c4.71875 0 8.5332 -3.82324 8.5332 -8.5332c0 -4.71094 -3.81445 -8.53418 -8.5332 -8.53418h-110.934zM307.2 196.565
c4.71875 0 8.5332 -3.82324 8.5332 -8.5332c0 -4.71094 -3.81445 -8.5332 -8.5332 -8.5332h-221.867c-4.71875 0 -8.5332 3.82227 -8.5332 8.5332c0 4.70996 3.81445 8.5332 8.5332 8.5332h221.867zM307.2 145.365c4.71875 0 8.5332 -3.82324 8.5332 -8.5332
s-3.81445 -8.5332 -8.5332 -8.5332h-221.867c-4.71875 0 -8.5332 3.82324 -8.5332 8.5332s3.81445 8.5332 8.5332 8.5332h221.867zM461.414 426.368c27.8955 -0.00878906 50.5859 -22.707 50.5859 -50.6025v-180.421c0 -27.8955 -22.6982 -50.5938 -50.6025 -50.5938
h-9.13086v-85.333c0 -3.52441 -2.16699 -6.69043 -5.46094 -7.96191c-0.999023 -0.383789 -2.04004 -0.572266 -3.07227 -0.572266c-2.35547 0 -4.66797 0.981445 -6.31445 2.79102l-44.8857 49.374v-0.964844c0 -27.8955 -22.6982 -50.5938 -50.6025 -50.5938
l-141.875 -0.580078l-82.8076 -91.0938c-1.64746 -1.80859 -3.95996 -2.79004 -6.31445 -2.79004c-1.0332 0 -2.07422 0.1875 -3.07227 0.571289c-3.29395 1.27148 -5.46094 4.4375 -5.46094 7.96191v85.333h-51.7979c-27.9043 0 -50.6025 22.6904 -50.6025 50.5947v180.402
c0 27.9043 22.6982 50.6035 50.6025 50.6035l68.8643 0.144531v43.7246c0 27.9043 22.6982 50.6035 50.6025 50.6035zM375.467 102.093v23.0488v157.363c0 18.4912 -15.0439 33.5361 -33.5361 33.5361l-213.914 -0.444336h-0.0166016v0l-77.3799 -0.162109
c-18.5088 0 -33.5537 -15.0439 -33.5537 -33.5361v-180.403c0 -18.4824 15.0449 -33.5273 33.5361 -33.5273h60.3311c4.71875 0 8.5332 -3.82227 8.5332 -8.5332v-71.7998l70.4854 77.543c1.60449 1.7666 3.89062 2.78125 6.28027 2.79004l145.664 0.597656
c18.5264 0 33.5703 15.0352 33.5703 33.5273zM494.934 195.362h0.0078125v180.411c0 18.4922 -15.0439 33.5361 -33.5352 33.5361h-0.0175781l-291.336 0.597656c-18.4756 0 -33.5195 -15.0439 -33.5195 -33.5361v-43.6904l205.381 0.417969
c27.9209 0 50.6191 -22.6982 50.6191 -50.6025v-154.061l42.667 -46.9336v71.7998c0 4.70996 3.81445 8.5332 8.5332 8.5332h17.6641c18.4912 0 33.5361 15.0352 33.5361 33.5273z" />
    <glyph glyph-name="uniF10B" unicode="&#xf10b;" 
d="M420.327 133.407l91.6729 -192.519h-512l91.6729 192.51h62.8867l-25.6807 37.0898c-47.9795 63.9492 -41.0068 169.5 15.1006 225.599c30.3174 30.3174 70.6289 47.0166 113.502 47.0166c42.8818 0 83.1934 -16.6992 113.503 -47.0166
c56.1064 -56.0986 63.0791 -161.641 14.9072 -225.85l-25.5049 -36.8301h59.9404zM258.963 342.667c-32.3096 0 -58.5928 -26.291 -58.5928 -58.5928c0 -32.3008 26.292 -58.5928 58.5928 -58.5928c32.3018 0 58.5928 26.292 58.5928 58.5928
c0 32.3018 -26.291 58.5928 -58.5928 58.5928zM102.253 116.666l-75.7354 -159.037h458.965l-75.7354 159.037h-60.9443l-91.3213 -131.892l-91.3291 131.892h-63.8994z" />
    <glyph glyph-name="uniF10D" unicode="&#xf10d;" 
d="M486.311 146.265c4.26074 -4.26172 6.51758 -10.0254 6.51758 -16.7939c-0.75293 -6.00977 -3.00977 -11.0244 -7.02051 -15.0342l-30.3193 -30.3252l-123.802 -123.551c-1.50781 -1.49805 -3.56055 -2.29395 -6.01465 -3.00488l-72.4277 -21.0537
c-0.995117 -0.289062 -2.25586 -0.50293 -4.00977 -0.50293c-7.76953 0 -13.7832 6.51758 -13.7832 12.7832c0 1.50781 0.321289 2.98926 0.748047 4.5127l20.5527 72.9258c0.34668 1.22949 1.50195 3.50781 3.75781 6.26562l123.054 123.049l30.8213 30.3242
c4.55078 4.47559 9.77344 6.76953 15.5371 6.76953c6.76855 0 12.5322 -2.50781 17.793 -7.76953zM314.894 -17.3848l111.27 111.271l-32.8271 32.3291l-110.772 -110.772l-13.2803 -45.6104zM445.71 113.438l17.0439 17.541l-32.3291 32.3301l-17.542 -17.542z
M296.849 206.914c7.76855 0 13.7842 -6.01562 13.7842 -13.7832c0 -7.76855 -6.01465 -14.0342 -13.7832 -14.0342h-215.524c-7.76953 0 -13.7832 6.26562 -13.7832 14.0342s6.01367 13.7832 13.7832 13.7832h215.523zM310.632 130.979
c0 -7.76758 -6.01465 -14.0342 -13.7822 -14.0342h-215.524c-7.76953 0 -13.7832 6.26562 -13.7832 14.0342c0 7.76953 6.01367 13.7832 13.7832 13.7832h215.523c7.76953 0 13.7832 -6.01465 13.7832 -13.7832zM181.318 83.1123
c7.76855 0 14.0342 -6.01465 14.0342 -13.7832c0 -7.76953 -6.26562 -13.7842 -14.0342 -13.7842h-99.9932c-7.76953 0 -13.7832 6.01465 -13.7832 13.7842c0 7.76855 6.01367 13.7832 13.7832 13.7832h99.9932zM181.318 20.959
c7.76855 0 14.0342 -6.01367 14.0342 -13.7832c0 -7.76855 -6.26562 -13.7832 -14.0342 -13.7832h-99.9932c-7.76953 0 -13.7832 6.01465 -13.7832 13.7832c0 7.76953 6.01367 13.7832 13.7832 13.7832h99.9932zM46.9893 -33.9209
c0 -1.75879 0.753906 -2.50781 2.50781 -2.50781h163.648v-27.5654h-163.648c-17.0439 0 -30.3252 13.0293 -30.3252 30.0732v451.848c0 8.27051 3.00488 15.5361 8.77344 21.2998c5.76367 5.76855 13.0293 8.77344 21.5518 8.77344h102.753h27.0635l0.501953 -0.501953
l178.684 -178.94h0.50293v-27.8164v-84.2061h-27.8174v84.2061h-148.866c-17.0391 0 -30.0684 13.7832 -30.0684 30.8271v148.866h-102.753c-1.75391 0 -2.50781 -0.753906 -2.50781 -2.50781v-451.848zM179.815 408.153v0v-136.585
c0 -2 0.749023 -3.00488 2.50293 -3.00488h137.087z" />
    <glyph glyph-name="uniF122" unicode="&#xf122;" 
d="M487.206 -47.4707h24.7939v-16.5293h-512v16.5293h24.7939v429.455h82.5449v66.0156h297.322v-66.0156h82.5449v-429.455zM107.339 -47.4707v412.926h-66.0156v-412.926h66.0156zM297.323 -47.4707v132.132h-82.6465v-132.132h82.6465zM388.132 -47.4707v478.941
h-264.264v-478.941h74.2803v148.661h115.703v-148.661h74.2803zM470.677 -47.4707v412.926h-66.0156v-412.926h66.0156zM156.926 398.413h66.0156v-66.0166h-66.0156v66.0166zM206.413 348.926v32.958h-33.0586v-32.958h33.0586zM289.059 398.413h66.0156v-66.0166h-66.0156
v66.0166zM338.545 348.926v32.958h-33.0586v-32.958h33.0586zM156.926 299.339h66.0156v-66.0156h-66.0156v66.0156zM206.413 249.852v33.0586h-33.0586v-33.0586h33.0586zM289.059 299.339h66.0156v-66.0156h-66.0156v66.0156zM338.545 249.852v33.0586h-33.0586v-33.0586
h33.0586zM156.926 200.265h66.0156v-66.0156h-66.0156v66.0156zM206.413 150.677v33.0586h-33.0586v-33.0586h33.0586zM289.059 200.265h66.0156v-66.0156h-66.0156v66.0156zM338.545 150.677v33.0586h-33.0586v-33.0586h33.0586zM66.0156 299.339v33.0576h16.5293v-33.0576
h-16.5293zM66.0156 200.265v33.0586h16.5293v-33.0586h-16.5293zM66.0156 92.9258v33.0586h16.5293v-33.0586h-16.5293zM66.0156 -14.5137v33.0586h16.5293v-33.0586h-16.5293zM429.455 299.339v33.0576h16.5293v-33.0576h-16.5293zM429.455 200.265v33.0586h16.5293
v-33.0586h-16.5293zM429.455 92.9258v33.0586h16.5293v-33.0586h-16.5293zM429.455 -14.5137v33.0586h16.5293v-33.0586h-16.5293z" />
    <glyph glyph-name="uniF105" unicode="&#xf105;" 
d="M511.153 288.069c0.581055 -3.63281 3.00293 -22.7559 -4.3623 -53.9307c-10.6143 -44.9893 -35.1328 -85.8926 -70.8867 -118.298l-181.436 -161.86l-178.373 161.87c-35.7539 32.3955 -60.2725 73.3086 -70.8867 118.288
c-7.36523 31.1846 -4.94336 50.3076 -4.35254 53.9404c7.46387 82.2598 65.6973 141.94 138.554 141.94c47.7666 0 90.3926 -25.5908 115.177 -68.001c25.0107 41.8682 69.459 67.9912 118.003 67.9912c72.8662 0 131.09 -59.6807 138.563 -141.94zM487.619 238.648
c6.97168 29.5107 4.10645 46.1914 4.08691 46.3486c-6.52832 73.0039 -56.5693 125.319 -119.106 125.319c-47.2441 0 -90.0186 -29.0479 -108.993 -73.9883l-9.06836 -21.4951l-9.06934 21.4951c-19.2793 45.6396 -59.9072 73.998 -106.059 73.998
c-62.5469 0 -112.578 -52.3154 -118.979 -124.384l-0.147461 -0.994141c-0.00976562 -0.108398 -2.875 -16.7793 4.09668 -46.2891c9.69824 -41.0811 32.1494 -78.499 64.9482 -108.216l165.258 -149.976l168.143 150.015c32.7402 29.6582 55.2012 67.0859 64.8896 108.166z
" />
    <glyph glyph-name="uniF107" unicode="&#xf107;" 
d="M485.642 248.889c14.5352 0 26.3584 -11.8232 26.3584 -26.3584v-61.0605c0 -14.5352 -11.8232 -26.3584 -26.3584 -26.3584h-47.9004c-7.69922 0 -14.0615 -4.23828 -17 -11.3496c-2.93945 -7.11133 -1.45117 -14.6016 3.98145 -20.0439l33.8682 -33.8584
c4.97754 -4.9873 7.71777 -11.6055 7.71777 -18.6406c0 -7.04492 -2.74023 -13.6719 -7.71777 -18.6494l-43.1689 -43.1699c-9.95605 -9.95508 -27.3164 -9.97461 -37.291 0l-33.8584 33.8682c-5.44238 5.43262 -12.9229 6.94043 -20.0439 3.98242
c-7.11133 -2.94922 -11.3486 -9.29199 -11.3486 -16.9912v-47.9004c0 -14.5352 -11.8242 -26.3584 -26.3594 -26.3584h-61.0508c-14.5352 0 -26.3584 11.8232 -26.3584 26.3584v47.9004c0 7.69922 -4.23828 14.042 -11.3496 16.9912
c-7.12012 2.94824 -14.6016 1.4502 -20.0439 -3.98242l-33.8584 -33.8682c-9.97461 -9.9834 -27.3252 -9.96484 -37.29 0l-43.1699 43.1699c-4.97754 4.98633 -7.71777 11.6045 -7.71777 18.6494c0 7.03516 2.74023 13.6631 7.71777 18.6406l33.8682 33.8584
c5.43262 5.44238 6.93066 12.9326 3.98242 20.0439c-2.94922 7.11133 -9.29199 11.3496 -16.9912 11.3496h-47.9004c-14.5352 0 -26.3584 11.8232 -26.3584 26.3682v61.0508c0 14.5352 11.8232 26.3584 26.3584 26.3584h47.9004c7.69922 0 14.0518 4.23828 16.9912 11.3496
s1.4502 14.6016 -3.98242 20.0439l-33.8682 33.8584c-4.97754 4.9873 -7.71777 11.6055 -7.71777 18.6406c0 7.04492 2.74023 13.6719 7.71777 18.6494l43.1699 43.1699c9.95508 9.95508 27.3154 9.97461 37.29 0l33.8584 -33.8584
c5.44238 -5.43359 12.9521 -6.95996 20.0439 -3.99219c7.11133 2.94922 11.3496 9.29199 11.3496 16.9912v47.9004c0 14.5352 11.8232 26.3584 26.3584 26.3584h61.0605c14.5352 0 26.3584 -11.8232 26.3584 -26.3584v-47.9004c0 -7.69922 4.23828 -14.042 11.3496 -16.9912
c7.0918 -2.95801 14.6016 -1.44141 20.0439 3.99219l33.8584 33.8584c9.97461 9.97461 27.335 9.95508 37.29 0l43.1699 -43.1699c4.97754 -4.98633 7.71777 -11.6045 7.71777 -18.6494c0 -7.03516 -2.74023 -13.6631 -7.71777 -18.6406l-33.8682 -33.8584
c-5.43262 -5.44238 -6.93066 -12.9326 -3.98242 -20.0439c2.94922 -7.11133 9.29199 -11.3496 16.9912 -11.3496h47.9004zM493.037 161.47v61.0605c0 4.07715 -3.31836 7.39551 -7.39551 7.38574h-47.9004c-15.3984 0 -28.625 8.83691 -34.5127 23.0596
c-5.89746 14.2217 -2.78809 29.8281 8.09668 40.7129l33.8682 33.8584c2.8916 2.88281 2.8916 7.57617 0 10.4678l-43.1689 43.1689c-2.87305 2.89258 -7.56641 2.89258 -10.4678 0l-33.8584 -33.8584c-10.8848 -10.8848 -26.4727 -13.9941 -40.7129 -8.09668
c-14.2227 5.8877 -23.0596 19.1143 -23.0596 34.5127v47.9004c0 4.07715 -3.31836 7.39551 -7.40527 7.39551h-61.0508c-4.07715 0 -7.39551 -3.31836 -7.39551 -7.39551v-47.9004c0 -15.3984 -8.83691 -28.625 -23.0596 -34.5029
c-14.2402 -5.89746 -29.8379 -2.77832 -40.7129 8.09668l-33.8584 33.8584c-2.8916 2.8916 -7.58496 2.8916 -10.4678 0l-43.1689 -43.1689c-2.8916 -2.88281 -2.8916 -7.57617 0 -10.4678l33.8682 -33.8584c10.8936 -10.8848 13.9941 -26.4912 8.09668 -40.7129
c-5.8877 -14.2227 -19.1143 -23.0596 -34.5127 -23.0596h-47.9004c-4.07715 0 -7.39551 -3.31836 -7.39551 -7.39551v-61.0605c0 -4.07715 3.31836 -7.39551 7.39551 -7.39551h47.9004c15.3984 0 28.625 -8.83691 34.5127 -23.0498
c5.89746 -14.2217 2.78809 -29.8281 -8.09668 -40.7129l-33.8682 -33.8584c-2.8916 -2.88281 -2.8916 -7.57617 0 -10.4678l43.1689 -43.1689c2.87305 -2.88281 7.56641 -2.90137 10.4678 0l33.8584 33.8672c7.24414 7.24414 16.5645 11.0371 26.1787 11.0371
c4.85449 0 9.76562 -0.967773 14.5342 -2.94922c14.2227 -5.8877 23.0596 -19.1143 23.0596 -34.5127v-47.9004c0 -4.07715 3.31836 -7.39551 7.39551 -7.39551h61.0605c4.07715 0 7.39551 3.31836 7.39551 7.39551v47.9004c0 15.3984 8.83691 28.625 23.0596 34.5127
c14.2217 5.87891 29.8184 2.79688 40.7129 -8.09668l33.8584 -33.8682c2.8916 -2.90137 7.58496 -2.88281 10.4678 0l43.1689 43.1689c2.8916 2.88281 2.8916 7.57617 0 10.4678l-33.8682 33.8584c-10.8936 10.8848 -13.9941 26.4912 -8.09668 40.7129
c5.8877 14.2227 19.1143 23.0596 34.5127 23.0596h47.9004c4.07715 0 7.39551 3.31836 7.39551 7.39551zM256 277.333c47.0566 0 85.333 -38.2764 85.333 -85.333s-38.2764 -85.333 -85.333 -85.333s-85.333 38.2764 -85.333 85.333s38.2764 85.333 85.333 85.333z
M256 125.63c36.5889 0 66.3701 29.7812 66.3701 66.3701s-29.7812 66.3701 -66.3701 66.3701s-66.3701 -29.7812 -66.3701 -66.3701s29.7812 -66.3701 66.3701 -66.3701z" />
    <glyph glyph-name="uniF11F" unicode="&#xf11f;" 
d="M270.924 198.449c33.4727 -6.71582 58.6299 -36.3506 58.6299 -71.6348c0 -35.3916 -25.2637 -64.9199 -58.6299 -71.6357v-104.681c0 -7.99512 -6.39551 -14.3916 -14.3906 -14.3916s-14.3916 6.39648 -14.3916 14.3916v104.681
c-33.3652 6.71582 -58.6299 36.2441 -58.6299 71.6357c0 35.3906 25.2646 64.9189 58.6299 71.6348v235.16c0 7.99414 6.39648 14.3906 14.3916 14.3906s14.3906 -6.39648 14.3906 -14.3906v-235.16zM256.533 82.5752c24.4111 0 44.2393 19.8271 44.2393 44.2393
c0 24.4111 -19.8281 44.2383 -44.2393 44.2383s-44.2393 -19.8271 -44.2393 -44.2383c0 -24.4121 19.8281 -44.2393 44.2393 -44.2393zM94.7139 319.12c33.3662 -6.71582 58.6299 -36.1367 58.6299 -71.5283c0 -35.3906 -25.2637 -64.9189 -58.6299 -71.6348v-225.459
c0 -7.99512 -6.39551 -14.3916 -14.3906 -14.3916s-14.3916 6.39648 -14.3916 14.3916v225.352c-33.3652 6.71582 -58.6299 36.2441 -58.6299 71.6357s25.2646 64.9189 58.6299 71.6348v114.489c0 7.99414 6.39648 14.3906 14.3916 14.3906
s14.3906 -6.39648 14.3906 -14.3906v-114.489zM80.3232 203.246c24.3047 0 44.2393 19.8281 44.2393 44.2393s-19.8281 44.2393 -44.2393 44.2393s-44.2393 -19.8281 -44.2393 -44.2393s19.8281 -44.2393 44.2393 -44.2393zM446.068 319.12
c33.4717 -6.71582 58.6299 -36.1367 58.6299 -71.5283c0 -35.3906 -25.2646 -64.9189 -58.6299 -71.6348v-225.566c0 -7.99414 -6.39648 -14.3906 -14.3916 -14.3906s-14.3906 6.39648 -14.3906 14.3906v225.459c-33.3662 6.71582 -58.6299 36.2441 -58.6299 71.6357
s25.2637 64.9189 58.6299 71.6348v114.489c0 7.99414 6.39551 14.3906 14.3906 14.3906s14.3916 -6.39648 14.3916 -14.3906v-114.489zM431.677 203.246c24.4111 0 44.2393 19.8281 44.2393 44.2393s-19.8281 44.2393 -44.2393 44.2393s-44.2393 -19.8281 -44.2393 -44.2393
s19.8281 -44.2393 44.2393 -44.2393z" />
    <glyph glyph-name="uniF10A" unicode="&#xf10a;" 
d="M407.704 257.299c32.2461 -5.55566 56.8887 -33.6592 56.8887 -67.4697v-185.287c0 -37.7939 -30.749 -68.542 -68.542 -68.542h-280.102c-37.793 0 -68.542 30.748 -68.542 68.5322v185.287c0 33.8203 24.6426 61.9238 56.8887 67.4795v53.2197
c0 75.8047 68.0586 137.481 151.704 137.481s151.704 -61.6768 151.704 -137.481v-53.2197zM123.259 310.519v-52.1484h265.482v52.1484c0 65.3555 -59.5439 118.519 -132.741 118.519s-132.741 -53.1631 -132.741 -118.519zM445.63 4.54199v185.287
c0 27.335 -22.2441 49.5781 -49.5791 49.5781h-280.102c-27.335 0 -49.5791 -22.2432 -49.5791 -49.5781v-185.287c0 -27.3359 22.2441 -49.5791 49.5791 -49.5791h280.102c27.335 0 49.5791 22.2432 49.5791 49.5791zM256 182.519
c20.916 0 37.9258 -17.0098 37.9258 -37.9258v-56.8887c0 -20.917 -17.0098 -37.9268 -37.9258 -37.9268s-37.9258 17.0098 -37.9258 37.9268v56.8887c0 20.916 17.0098 37.9258 37.9258 37.9258zM274.963 87.7041v56.8887c0 10.458 -8.50488 18.9629 -18.9629 18.9629
s-18.9629 -8.50488 -18.9629 -18.9629v-56.8887c0 -10.458 8.50488 -18.9629 18.9629 -18.9629s18.9629 8.50488 18.9629 18.9629z" />
    <glyph glyph-name="uniF112" unicode="&#xf112;" 
d="M121.243 245.877c-6.19238 0 -11.2207 5.02832 -11.2207 11.2393c0 6.17285 5.02832 11.2207 11.2207 11.2207h0.567383c5.10547 61.6309 51.6602 111.417 111.734 121.503v16.0566h19.6426v39.2959c0 1.5293 1.25977 2.80762 2.80762 2.80762
s2.80762 -1.27832 2.80762 -2.80762v-39.3057h19.6523v-16.0566c60.0742 -10.0859 106.639 -59.8711 111.715 -121.503h0.577148c6.19238 0 11.2305 -5.04785 11.2305 -11.2207c0 -6.20117 -5.03809 -11.2295 -11.2305 -11.2295h-269.504zM446.897 -35.9346
c7.76953 0 14.0381 -6.32617 14.0381 -14.0273c0 -7.79785 -6.26855 -14.0381 -14.0381 -14.0381h-381.795c-7.75 0 -14.0381 6.24023 -14.0381 14.0381c0 7.7207 6.28809 14.0273 14.0381 14.0273h14.0371v129.146h-14.0371c-7.75 0 -14.0381 6.25 -14.0381 14.0381
c0 7.7207 6.28809 14.0381 14.0381 14.0381h381.795c7.76953 0 14.0381 -6.31738 14.0381 -14.0381c0 -7.78809 -6.26855 -14.0381 -14.0381 -14.0381h-14.0371v-129.146h14.0371zM393.555 -35.9346v129.146h-23.5752v-129.146h23.5752zM244.207 93.2119v-129.146h23.5762
v129.146h-23.5762zM204.911 -35.9346v129.146h-23.585v-129.146h23.585zM307.098 93.2119v-129.146h23.5762v129.146h-23.5762zM118.436 93.2119v-129.146h23.5752v129.146h-23.5752zM104.407 198.148c-7.75879 0 -13.9512 6.29785 -13.9512 14.0381
c0 7.75879 6.29785 14.0371 14.0381 14.0371h303.175c7.76953 0 14.0381 -6.27832 14.0381 -14.0371c0 -7.77832 -6.26855 -14.0381 -14.0381 -14.0381h-14.1426c0 -0.15332 0.115234 -0.355469 0.115234 -0.557617v-60.5928h-28.0752v60.5928
c0 0.154297 0.105469 0.34668 0.105469 0.557617h-13.3359c0 -0.15332 0.115234 -0.355469 0.115234 -0.557617v-60.5928h-28.0752v60.5928c0 0.154297 0.115234 0.34668 0.115234 0.557617h-13.3359c0 -0.15332 0.106445 -0.355469 0.106445 -0.557617v-60.5928h-28.0762
v60.5928c0 0.154297 0.116211 0.34668 0.116211 0.557617h-13.3359c0 -0.15332 0.115234 -0.355469 0.115234 -0.557617v-60.5928h-28.0752v60.5928c0 0.154297 0.115234 0.34668 0.115234 0.557617h-13.3359c0 -0.15332 0.115234 -0.355469 0.115234 -0.557617v-60.5928
h-28.0752v60.5928c0 0.154297 0.105469 0.34668 0.105469 0.557617h-13.3359c0 -0.15332 0.106445 -0.355469 0.106445 -0.557617v-60.5928h-28.0664v60.5928c0 0.154297 0.106445 0.34668 0.106445 0.557617h-13.3359c0 -0.15332 0.105469 -0.355469 0.105469 -0.557617
v-60.5928h-28.0752v60.5928c0 0.154297 0.115234 0.34668 0.115234 0.557617h-14.1436z" />
    <glyph glyph-name="uniF118" unicode="&#xf118;" 
d="M512 273.63c-0.0107422 -8.68555 -2.8623 -17.5059 -9.04199 -24.3574l-68.8379 -76.1104l7.62695 -7.04492c6.74902 -6.23633 10.1689 -14.7949 10.1582 -23.2773c0 -7.70898 -2.81641 -15.5215 -8.5 -21.6143l-4.07812 -4.36816
c-5.21191 -5.59766 -12.0664 -8.75 -19.1348 -9.6875c0.529297 -2.35059 0.873047 -4.72949 0.873047 -7.12109c0.0117188 -7.70312 -2.81641 -15.5156 -8.5 -21.6074l-4.06738 -4.36426c-6.27832 -6.70703 -14.8652 -10.1113 -23.3877 -10.1113
c-2.66992 0 -5.31738 0.454102 -7.92969 1.12305c-0.813477 -6.3291 -3.44922 -12.5254 -8.13281 -17.5293l-4.05469 -4.36328c-6.27246 -6.71289 -14.8828 -10.123 -23.4062 -10.1172c-7.7373 -0.00585938 -15.5752 2.80371 -21.7012 8.45312l-9.89551 9.13379
c-1.33301 -4.6709 -3.63086 -9.14648 -7.15137 -12.9268l-4.07812 -4.36914c-6.26562 -6.70801 -14.8525 -10.1182 -23.3643 -10.1006c-7.74805 -0.0166016 -15.5977 2.80566 -21.7129 8.47754l-25.5469 23.6436l-18.8037 -19.6357
c-6.25293 -6.52832 -14.7188 -9.82129 -23.1016 -9.81445c-7.87207 -0.00585938 -15.8604 2.90332 -22.0098 8.74414l-4.3291 4.11914c-4.06543 3.86328 -6.73633 8.61621 -8.2959 13.6309c-5.3291 -3.52441 -11.5186 -5.34082 -17.6807 -5.33496
c-7.88281 -0.00488281 -15.8584 2.9043 -22.0195 8.74512l-4.3291 4.11914c-4.53809 4.30469 -7.42383 9.69238 -8.82031 15.3594c-3.98047 -1.66406 -8.21484 -2.51465 -12.4453 -2.50781c-7.87012 -0.00585938 -15.8574 2.90332 -22.0195 8.74414l-4.3291 4.11914
l0.0107422 -0.00585938c-6.55566 6.21387 -9.87207 14.6377 -9.86133 22.9932c-0.0107422 5.18262 1.3916 10.3564 3.95605 15.0742c-5.11328 1.30859 -10.001 3.7627 -14.0674 7.62109l-4.31641 4.10059c-6.56738 6.20703 -9.88379 14.6367 -9.87305 22.9863
c0 7.84668 2.91992 15.7832 8.78516 21.9033l21.2764 22.1953l-44.8506 38.2637c-7.25977 6.18555 -11.0234 15.0107 -11.0127 23.8076c-0.0107422 7.37695 2.63574 14.8711 7.96484 20.8223l48.0801 53.8457c4.00781 4.47852 9.04102 7.74316 14.4629 9.9541
c5.42871 2.19922 11.2705 3.35645 17.1465 3.3623c5.10254 -0.00585938 10.252 -0.883789 15.0684 -2.9375l26.4082 -11.2637c4.29395 -1.86133 11.1123 -3.07715 17.8965 -3.04883c6.7832 -0.0292969 13.6133 1.18652 17.9072 3.04883l26.3848 11.2578
c7.06348 2.9834 15.1084 4.22363 23.1553 4.24707c8.9082 -0.0292969 17.7275 -1.5127 25.2275 -5.18945c6.25391 -3.11133 11.7744 -5.8584 15.3877 -7.66211l4.52051 3.1709c8.18555 5.67383 18.373 8.14551 28.4316 8.19238
c7.00391 -0.0117188 13.9688 -1.24512 20.2168 -4.25293l38.7363 -18.7627c3.41504 -1.6875 8.58691 -2.75879 13.9385 -2.73535c6.88965 -0.046875 14.0215 1.77441 18.1816 4.42676l39.5557 24.6104c5.53223 3.4502 11.793 5.02637 17.9424 5.02637
c10.332 -0.0175781 20.6709 -4.41016 27.4658 -13.0381l40.5684 -51.9082c5.05469 -6.49805 7.34082 -14.3809 7.35254 -22.1543zM62.0137 139.935c2.99609 0.0136719 5.94043 0.920898 8.43066 2.68262c0 0 46.8867 48.8652 47.0312 49.0098
c1.69336 2.44434 2.56641 5.26562 2.57715 8.16309c-0.0107422 3.86914 -4.46777 10.46 -4.46777 10.46l-4.30469 4.10742c-2.81055 2.64648 -6.36523 3.95605 -10.001 3.96191c-3.88672 -0.00488281 -7.67383 -1.48828 -10.5137 -4.4502l-43.5752 -45.4727
c-2.67188 -2.78711 -3.96875 -6.3252 -3.98047 -9.94922c0.0117188 -3.86426 1.48926 -7.62695 4.48047 -10.4551l4.32227 -4.10156c2.78711 -2.64062 6.35449 -3.94434 10.001 -3.95605zM96.8164 94.5781l58.1074 60.6602c2.66016 2.78711 3.96777 6.33008 3.98047 9.9541
c-0.0117188 3.86816 -1.49023 7.63867 -4.46875 10.4551l-4.32812 4.11816c-2.79883 2.64746 -6.35449 3.9502 -10.001 3.95605c-3.69434 -0.00585938 -7.27148 -1.38477 -10.0479 -4.05469c-0.488281 -0.583008 -58.5742 -61.0479 -58.5742 -61.0479
c-2.6582 -2.78711 -3.96777 -6.3252 -3.96777 -9.94922c0 -3.86426 1.49023 -7.63867 4.45703 -10.4551l0.0117188 -0.00585938l4.3291 -4.11426c2.79785 -2.64062 6.35352 -3.9502 10.001 -3.95605c3.88574 0.0126953 7.66797 1.48926 10.501 4.43945zM144.423 68.8701
l38.875 40.5684c2.64844 2.7793 3.96777 6.32227 3.98047 9.95312c-0.0117188 3.86328 -1.50098 7.63379 -4.46875 10.4492l-4.34082 4.11914c-2.79785 2.64746 -6.35352 3.9502 -10.001 3.95605c-3.54395 0 -6.96387 -1.29688 -9.69238 -3.75781l-40.4521 -42.2217
c-2.10547 -2.61133 -3.20508 -5.74805 -3.20508 -8.98242c0 -3.86426 1.49023 -7.63281 4.46777 -10.4551l4.34082 -4.11426c2.79785 -2.64648 6.35449 -3.95605 10.001 -3.96191c3.8877 0.0107422 7.66797 1.49023 10.4951 4.44727zM221.285 73.3262
c2.65918 2.78125 3.96777 6.32422 3.98145 9.9541c-0.0117188 3.8623 -1.48926 7.63281 -4.45703 10.4482l-4.34082 4.11426c-2.79785 2.65332 -6.36523 3.95605 -10.001 3.96191c-3.88574 -0.00585938 -7.67383 -1.48926 -10.5127 -4.44434l-24.5352 -25.6172
c-2.66016 -2.77539 -3.96875 -6.31836 -3.97949 -9.94922c0.0107422 -3.86426 1.50098 -7.63867 4.46777 -10.4551l4.3291 -4.11426c2.79785 -2.64648 6.35352 -3.95605 10.001 -3.96191c3.88574 0.0117188 7.67285 1.49023 10.501 4.44531zM434.523 142.817
c-0.0126953 3.92676 -1.54883 7.75 -4.59961 10.5791l-51.5293 47.6426c-8.94238 8.28516 -25.0801 21.4512 -34.9883 28.5488l-44.5195 31.917c-3.64746 2.68066 -9.71582 4.46191 -15.7373 4.42676c-5.125 0.0234375 -10.0811 -1.24512 -13.3633 -3.25195
l-16.0918 -9.66406c-5.39355 -3.23438 -11.4443 -4.73535 -17.3848 -4.73535c-10.5186 0.0224609 -21.043 4.63574 -27.792 13.6074l-3.55371 4.77637l0.0107422 -0.0117188c-4.16602 5.5791 -6.21289 12.1523 -6.20117 18.6104
c-0.0126953 9.75684 4.64746 19.4268 13.2939 25.5059l26.9072 18.915c-2.19238 1.09961 -4.55469 2.27539 -7.04492 3.51465c-3.9209 2.00098 -10.6807 3.39746 -17.4297 3.35645c-6.10254 0.0234375 -12.2402 -1.07715 -16.3066 -2.85059l-26.3848 -11.2578
c-7.44141 -3.13574 -16.0693 -4.4209 -24.7617 -4.4502c-8.68164 0.0283203 -17.3213 1.31348 -24.7617 4.4502l-26.3965 11.2627c-2.29297 0.989258 -5.16016 1.54199 -8.21484 1.54199c-3.50781 0.00488281 -7.25977 -0.733398 -10.5645 -2.07715
c-3.30566 -1.34473 -6.12695 -3.28223 -8.03516 -5.42285l-48.0791 -53.8447c-2.41992 -2.70996 -3.55469 -5.97461 -3.56641 -9.30859c0.0126953 -3.97852 1.64746 -7.85352 4.92188 -10.6572l45.5664 -38.8643l10.2861 10.7334
c6.25293 6.52832 14.7061 9.82129 23.1016 9.81543c7.87207 0.00585938 15.8477 -2.90918 22.0098 -8.75586l4.31641 -4.10156v-0.00585938c6.2832 -5.96875 9.51172 -13.9795 9.76172 -21.9971c0.914062 0.0820312 1.82129 0.268555 2.74023 0.268555
c7.87207 0.00585938 15.8477 -2.90918 22.0088 -8.75l4.3291 -4.11914c6.55664 -6.21191 9.86133 -14.6367 9.86133 -22.9863c0 -3.55469 -0.680664 -7.10352 -1.88477 -10.5127c5.83984 -1.09375 11.4551 -3.81641 16.0566 -8.17969l4.3291 -4.10742
s9.87207 -14.6494 9.86133 -22.998c0 -0.144531 -0.0341797 -0.296875 -0.0341797 -0.441406c0.598633 0.0341797 1.21484 0.174805 1.82617 0.174805c7.87109 0.0107422 15.8477 -2.90332 21.9971 -8.73926l4.34082 -4.11914
c6.55566 -6.21875 9.87207 -14.6367 9.86035 -22.9863c0 -4.92188 -1.28516 -9.82617 -3.58984 -14.3467l26.4775 -24.5166c2.76855 -2.56543 6.27148 -3.82227 9.84961 -3.83301c3.93359 0.0117188 7.77344 1.53613 10.6123 4.57227l4.06641 4.36914
c2.57715 2.76562 3.8291 6.23242 3.84082 9.77539c-0.0117188 3.6709 -1.40723 7.21973 -4.10156 9.98926l-30.4102 28.0654l-0.226562 0.214844l-0.0117188 0.0117188l11.8154 12.7119l0.0107422 -0.0107422h0.0117188l60.7158 -56.0566
c2.76855 -2.55371 6.27051 -3.81641 9.86133 -3.82812c3.9541 0.0117188 7.81738 1.54688 10.6455 4.58398l4.06738 4.36426c2.57715 2.76367 3.83984 6.24805 3.83984 9.80859c0 3.83984 -1.50195 7.58008 -4.43457 10.3906l-60.8379 56.2598l11.8389 12.6895
l68.5537 -63.3809c2.75781 -2.55371 6.27148 -3.81641 9.84961 -3.82715c3.94434 0.0117188 7.7959 1.54199 10.6348 4.57812l4.05566 4.36426c2.57715 2.77051 3.83984 6.24902 3.8623 9.82129c-0.0224609 3.9209 -1.55762 7.76074 -4.6123 10.5889l-73.3584 67.959
l11.8506 12.6895l68.5352 -63.3818c2.78027 -2.56934 6.2832 -3.82617 9.86133 -3.83301c3.94434 0.00683594 7.7959 1.54199 10.6348 4.5791l4.06738 4.36426c2.58301 2.76953 3.85742 6.25391 3.86328 9.8125zM490.038 260.854
c2.8623 3.12402 4.5791 7.90723 4.57227 12.7686c0 4.34668 -1.35547 8.54102 -3.69434 11.5137l-40.5684 51.9082c-3.03027 3.9502 -8.38281 6.37012 -13.7236 6.35938c-3.16016 0 -6.19141 -0.81543 -8.71582 -2.3916l-39.5684 -24.6143
c-8.02344 -4.92871 -17.7627 -7.02246 -27.3965 -7.06934c-7.49805 0.0175781 -14.9512 1.31445 -21.5557 4.48633l-38.7344 18.7627c-3.15918 1.55957 -7.77246 2.53125 -12.6016 2.50781c-6.95215 0.0517578 -14.2705 -2.03711 -18.3848 -5.01465l-47.5791 -33.4307
c-3.89844 -2.75195 -5.91211 -6.98633 -5.93457 -11.3506c0.0126953 -2.88574 0.890625 -5.7373 2.77539 -8.2793l0.0126953 -0.0117188l3.54297 -4.77051c3.0127 -4.10156 8.41699 -6.62109 13.8164 -6.60352c3.02148 0.00585938 5.92969 0.762695 8.39648 2.24609
l16.0801 9.66406c6.75977 4.02441 14.5908 5.71875 22.3633 5.74219c9.13477 -0.0341797 18.373 -2.3457 25.9189 -7.69141l44.5078 -31.917c10.7979 -7.75586 26.8955 -20.8984 36.6572 -29.9102l31.167 -28.8096z" />
    <glyph glyph-name="uniF117" unicode="&#xf117;" 
d="M508.344 394.536c4.58789 -4.52148 4.89746 -11.8232 0.704102 -16.7139l-284.334 -331.832c-2.33691 -2.72559 -5.74316 -4.28418 -9.31348 -4.28418c-0.211914 0 -0.426758 0.00488281 -0.638672 0.0166016c-3.79883 0.198242 -7.29199 2.14746 -9.4541 5.27832
l-95.3984 138.148c-3.28027 4.75293 -2.80273 11.1494 1.14746 15.3604c3.95117 4.21094 10.3076 5.0957 15.2578 2.12402l95.3984 -57.2617c5.80664 -3.4873 7.68945 -11.0205 4.2041 -16.8291c-3.48633 -5.80664 -11.0195 -7.68945 -16.8281 -4.2041l-46.7607 28.0674
l54.1182 -78.3672l159.527 186.177l-111.857 -98.7236c-5.07812 -4.48438 -12.8291 -3.99805 -17.3115 1.0791c-4.48242 5.0791 -3.99805 12.8291 1.0791 17.3115l243.735 215.113c4.8291 4.2627 12.1357 4.06348 16.7246 -0.459961zM415.814 245.115
c6.77344 0 12.2646 -5.49121 12.2646 -12.2646v-246.344c0 -6.77246 -5.49121 -12.2637 -12.2646 -12.2637h-361.412c-6.77344 0 -12.2646 5.49121 -12.2646 12.2637v227.264l-21.834 -18.9492c-2.32227 -2.01465 -5.18555 -3.00293 -8.03418 -3.00293
c-3.43066 0 -6.8418 1.43066 -9.26758 4.22559c-4.43945 5.11523 -3.8916 12.8613 1.22363 17.3018l222.843 193.407c4.61133 4.00391 11.4668 4.00391 16.0781 0l100.787 -87.4736c5.11523 -4.44043 5.66309 -12.1865 1.22363 -17.3018
c-4.43848 -5.11328 -12.1865 -5.66504 -17.3018 -1.22363l-92.748 80.499l-168.625 -146.353c0.112305 -0.667969 0.18457 -1.34961 0.18457 -2.0498v-234.079h336.883v234.079c0 6.77344 5.49121 12.2646 12.2646 12.2646z" />
    <glyph glyph-name="uniF103" unicode="&#xf103;" 
d="M479.506 113.973c19.332 -10.46 32.4941 -30.9141 32.4941 -54.3867c0 -34.0654 -27.7188 -61.793 -61.793 -61.793s-61.793 27.7275 -61.793 61.793c0 34.0664 27.7188 61.793 61.793 61.793c4.31641 0 8.52734 -0.450195 12.5967 -1.29688
c3.29297 14.9717 5.05859 30.1992 5.05859 45.4355c0 74.1162 -37.7471 141.594 -100.97 180.523c-4.14941 2.56055 -5.44727 7.98926 -2.88672 12.1475c2.55078 4.14844 7.9707 5.44629 12.1465 2.88672c68.4844 -42.1611 109.365 -115.271 109.365 -195.558
c0 -17.3027 -2.10156 -34.5869 -6.01172 -51.5449zM450.207 15.4482c24.3379 0 44.1377 19.8008 44.1377 44.1377c0 24.3379 -19.7998 44.1387 -44.1377 44.1387s-44.1377 -19.8008 -44.1377 -44.1387c0 -24.3369 19.7998 -44.1377 44.1377 -44.1377zM336.958 -30.2959
c4.50195 1.8623 9.6748 -0.274414 11.5371 -4.76758c1.86328 -4.51074 -0.282227 -9.6748 -4.78418 -11.5371c-27.8779 -11.5469 -57.3877 -17.3994 -87.7109 -17.3994c-61.8457 0 -121.291 25.2822 -164.36 69.5176c-8.85449 -4.9082 -19.0234 -7.72461 -29.8467 -7.72461
c-34.0742 0 -61.793 27.7275 -61.793 61.793c0 34.0664 27.7188 61.793 61.793 61.793s61.793 -27.7266 61.793 -61.793c0 -16.8691 -6.80566 -32.1582 -17.8047 -43.3252c39.6357 -39.875 93.8545 -62.6055 150.219 -62.6055c27.9922 0 55.2256 5.40234 80.958 16.0488z
M17.6553 59.5859c0 -24.3369 19.7998 -44.1377 44.1377 -44.1377s44.1377 19.8008 44.1377 44.1377c0 24.3379 -19.7998 44.1387 -44.1377 44.1387s-44.1377 -19.8008 -44.1377 -44.1387zM35.3105 172.465c-4.86426 0.334961 -8.52734 4.56348 -8.18359 9.41895
c6.86816 97.333 73.6836 178.529 167.089 204.544c0.123047 33.9688 27.7891 61.5723 61.7842 61.5723c34.0742 0 61.793 -27.7275 61.793 -61.793s-27.7188 -61.793 -61.793 -61.793c-28.0273 0 -51.7119 18.7676 -59.251 44.3848
c-85.0449 -24.6641 -145.726 -99.0898 -152.011 -188.151c-0.335938 -4.66113 -4.20215 -8.20898 -8.80078 -8.20898c-0.203125 0 -0.415039 0.00878906 -0.626953 0.0263672zM256 430.345c-24.3379 0 -44.1377 -19.7998 -44.1377 -44.1377
s19.7998 -44.1377 44.1377 -44.1377s44.1377 19.7998 44.1377 44.1377s-19.7998 44.1377 -44.1377 44.1377z" />
    <glyph glyph-name="uniF114" unicode="&#xf114;" 
d="M488.628 205.049c12.9131 0 23.3809 -10.4648 23.3721 -23.3867c0 -12.9141 -10.4648 -23.3809 -23.3789 -23.3809h-465.24c-12.9102 0 -23.3809 10.4658 -23.3809 23.3809c0 12.9131 10.4707 23.3789 23.3809 23.3789h432.505v118.49
c0 7.72559 -5.51172 14.0273 -12.2803 14.0273c-9.55566 0 -23.0947 -8.23145 -28.4043 -17.2705l-14.542 -24.7656l8.49023 -4.80957c4.49805 -2.53711 6.38965 -8.4043 4.2207 -13.0967l-13.2012 -28.6104c-2.16113 -4.69238 -7.56348 -6.44727 -12.0713 -3.91602
l-51.5029 28.8428c-4.50781 2.53125 -5.31738 7.65137 -1.80762 11.4453l22.377 24.2715c3.50391 3.79492 9.98535 4.80273 14.4932 2.2627l4.56543 -2.58301l14.7725 25.1572c10.4238 17.7559 33.0273 31.1465 52.6104 31.1465c22.25 0 40.3379 -18.8779 40.3379 -42.0938
v-118.49h4.68457zM469.908 143.477c6.16016 0 10.6826 -2.2793 12.4551 -6.26562c1.64551 -3.74805 0.405273 -8.28711 -3.39258 -12.458c-10.0117 -10.9551 -25.8955 -24.8145 -49.4707 -37.6104c0.648438 -1.18164 1.19629 -2.42383 1.50098 -3.79785l10.5264 -47.9346
c1.6709 -7.56348 -3.12109 -15.0596 -10.7031 -16.7227c-1.01172 -0.217773 -2.01562 -0.320312 -3.01172 -0.320312c-6.44922 0 -12.2549 4.45801 -13.6895 11.0234l-10.0527 45.7822c-35.375 -14.3662 -83.3779 -25.2451 -148.066 -25.2451
c-43.6211 0 -78.9443 4.99609 -107.686 12.627l-7.28418 -33.1641c-1.43457 -6.55762 -7.24707 -11.0234 -13.6914 -11.0234c-1.00391 0 -2.00781 0.101562 -3.0166 0.320312c-7.57129 1.6709 -12.3535 9.15918 -10.6943 16.7227l7.81543 35.6104
c-42.127 15.834 -65.7051 37.375 -78.1768 52.9727c-3.46094 4.33984 -4.37695 9.04102 -2.51465 12.8994c1.97949 4.125 6.81152 6.58398 12.9102 6.58398h416.242z" />
    <glyph glyph-name="uniF102" unicode="&#xf102;" 
d="M235.581 125.308c0 -19.6123 -15.9805 -35.5869 -35.5928 -35.5938h-164.395c-19.627 0 -35.5938 15.9814 -35.5938 35.5938v8.93945c0 19.6338 15.9736 35.6084 35.5938 35.6084h35.9658v88.6934h-12.0479c-19.627 0 -35.5938 15.96 -35.5938 35.5869v2.5498
c0 19.627 15.9736 35.5938 35.5938 35.5938h116.559c19.6191 0 35.5859 -15.9668 35.5859 -35.5938v-2.5498c0 -19.627 -15.9736 -35.5869 -35.5859 -35.5869h-7.60742v-88.7012h31.5254c19.627 0 35.5928 -15.9736 35.5928 -35.6006v-8.93945zM507.666 184.339
c5.77344 -5.75195 5.77344 -15.0781 0 -20.8516c-2.85742 -2.87988 -6.63965 -4.31934 -10.4082 -4.31934c-3.75293 0 -7.53516 1.46777 -10.4004 4.31934l-187.847 187.846l-67.4336 -67.4268c0.601562 3.31738 0.938477 6.72656 0.938477 10.2227v2.55664
c0 8.68945 -2.02734 16.8984 -5.54395 24.2617l61.6318 61.6318c5.7373 5.75195 15.0566 5.75195 20.8086 0l69.833 -69.8262v35.8301c0 8.12988 6.59082 14.7197 14.7207 14.7197c8.15137 0 14.7412 -6.58984 14.7412 -14.7197v-65.2783zM465.554 167.427
c2.08496 -2.07715 3.48145 -4.72754 4.04785 -7.63574c0.451172 -2.23535 0.65918 -4.50586 0.65918 -6.74023v-76.1875c0 -19.6416 -15.9883 -35.6084 -35.5938 -35.6084h-76.209c-9.87109 0 -19.3975 4.16211 -26.1172 11.4473
c-6.10938 6.60449 -9.4834 15.1924 -9.4834 24.1611v55.958c0 13.582 -10.4014 24.9141 -23.8535 26.2031c-13.4385 -1.28223 -23.8457 -12.6211 -23.8457 -26.2031v-55.9648c0 -8.99023 -3.36035 -17.5576 -9.47754 -24.1621
c-6.74707 -7.28418 -16.2529 -11.4531 -26.1162 -11.4531h-76.209c-2.71484 0 -5.36523 0.329102 -7.9082 0.916992v26.6826h44.541c31.1309 0 56.4668 25.3359 56.4668 56.4668v8.93945c0 31.1523 -25.3359 56.4746 -56.4668 56.4746h-10.6523v33.5586l99.2676 99.2744
c2.7793 2.76465 6.51074 4.31934 10.4072 4.31934c3.9043 0 7.64355 -1.55469 10.4082 -4.31934zM119.861 85.96c8.12988 0 14.7129 -6.58203 14.7129 -14.7412v-59.375c0 -8.14453 -6.58301 -14.7354 -14.7129 -14.7354c-8.1377 0 -14.7354 6.59082 -14.7354 14.7354
v59.375c0 8.15137 6.59766 14.7412 14.7354 14.7412z" />
    <glyph glyph-name="uniF110" unicode="&#xf110;" 
d="M74.6162 264.335h51.1299l18.9414 -222.606h-89.0312zM386.254 264.335h51.1299l18.96 -222.606h-89.0312zM23.2832 -25.041v44.5068h465.434v-44.5068h-465.434zM0 -58.4346v22.2627h512v-22.2627h-512zM189.213 269.975v0l0.0185547 16.6406h-178.101v37.1602
l244.869 118.659l244.888 -118.659v-37.1602h-178.119v-16.6221l-38.4766 -37.8838l16.2334 -190.381h-89.0322l16.1963 190.362zM300.488 279.287h0.0371094v62.9844h-89.0322v-62.9844l44.5068 -43.8193z" />
    <glyph glyph-name="uniF100" unicode="&#xf100;" 
d="M478.941 -18.5449h33.0586v-16.5293h-512v16.5293h33.0586v272.529h-27.3135l27.3135 100.082v65.0078h445.883v-64.9072l27.3135 -100.183h-27.3135v-272.529zM49.5869 402.545v-41.3232h412.927v41.3232h-412.927zM27.3135 270.413h457.373l-20.2578 74.2803h-416.857z
M388.132 -18.5449v214.677h-264.264v-214.677h264.264zM462.514 -18.5449v272.529h-412.927v-272.529h57.6514v231.206h297.322v-231.206h57.8525h0.100586zM148.661 154.81v16.5293h214.678v-16.5293h-214.678zM148.661 105.323v16.5283h214.678v-16.5283h-214.678z
M148.661 55.7354v16.5293h214.678v-16.5293h-214.678zM148.661 6.14844v16.5283h214.678v-16.5283h-214.678z" />
    <glyph glyph-name="uniF106" unicode="&#xf106;" 
d="M103.441 -51.9121c-1.89746 0 -3.79492 0.586914 -5.38867 1.75098c-2.82324 2.05273 -4.23438 5.52637 -3.63867 8.96289l28.3281 165.128l-119.975 116.932c-2.49219 2.4375 -3.39062 6.07617 -2.31836 9.38477c1.08105 3.31738 3.9502 5.73633 7.40527 6.24121
l165.788 24.0938l74.1504 150.235c1.54004 3.13379 4.72949 5.11426 8.21191 5.11426v0c3.49121 0 6.68066 -1.98047 8.21094 -5.11426l74.1416 -150.235l165.798 -24.0938c3.45508 -0.504883 6.31445 -2.91504 7.40527 -6.24121
c1.07227 -3.30859 0.182617 -6.95605 -2.31934 -9.38477l-119.974 -116.95l28.3184 -165.119c0.586914 -3.43652 -0.824219 -6.91016 -3.63867 -8.96289c-2.82227 -2.07129 -6.57031 -2.33691 -9.65918 -0.696289l-148.283 77.9541l-148.302 -77.9541
c-1.33887 -0.696289 -2.80469 -1.04492 -4.26172 -1.04492zM28.8594 241.026l110.122 -107.346c2.15332 -2.09863 3.14355 -5.14062 2.62988 -8.11035l-26 -151.564l136.132 71.5576c2.66699 1.41113 5.84668 1.41113 8.53223 0l136.113 -71.5576l-25.9912 151.564
c-0.513672 2.96973 0.476562 6.00293 2.62988 8.11035l110.122 107.346l-152.178 22.1143c-2.98828 0.430664 -5.56348 2.30957 -6.90137 5.0127l-68.0654 137.891l-68.0664 -137.899c-1.33789 -2.7041 -3.91309 -4.58301 -6.90039 -5.01367z" />
    <glyph glyph-name="uniF11A" unicode="&#xf11a;" 
d="M506.555 239.936c5.92871 -4.34082 7.2168 -12.6641 2.87402 -18.5918c-2.60547 -3.55957 -6.64746 -5.44434 -10.7441 -5.44434c-2.72754 0 -5.47949 0.834961 -7.84766 2.56934l-234.837 171.943l-234.837 -171.944c-5.92676 -4.33887 -14.252 -3.05273 -18.5928 2.875
c-4.3418 5.92871 -3.05371 14.252 2.875 18.5928l242.697 177.697c4.67871 3.42578 11.0361 3.42578 15.7168 0zM442.246 215.457c7.34668 0 13.3027 -5.95605 13.3037 -13.3037v-225.054c0 -7.34668 -5.95605 -13.3027 -13.3027 -13.3027h-133.029
c-7 0 -12.7266 5.41211 -13.251 12.2793c-0.0322266 0.306641 -0.0517578 0.640625 -0.0517578 1.02344v128.891c0 22.0078 -17.9053 39.9141 -39.9141 39.9141s-39.9141 -17.9053 -39.9141 -39.9141v-128.891c0 -0.384766 -0.0195312 -0.724609 -0.0517578 -1.03516
c-0.530273 -6.8623 -6.25488 -12.2676 -13.251 -12.2676h-133.029c-7.3457 0 -13.3027 5.95605 -13.3027 13.3027v225.054c0 7.34668 5.95703 13.3027 13.3027 13.3027s13.3027 -5.95605 13.3027 -13.3027v-211.749h106.424v115.587
c0 36.6777 29.8418 66.5195 66.5195 66.5195s66.5205 -29.8398 66.5205 -66.5195v-115.586h106.422v211.749c0 7.34668 5.95703 13.3027 13.3027 13.3027z" />
    <glyph glyph-name="uniF111" unicode="&#xf111;" 
d="M507.485 183.162c6.0293 -6.0293 6.0293 -15.7939 0 -21.8076c-3 -3.02246 -6.95898 -4.52246 -10.9111 -4.52246c-3.91504 0 -7.88184 1.51465 -10.874 4.52246l-196.67 196.654l-97.6553 -97.6484c-6.00684 -6.02246 -15.7783 -6.02246 -21.7861 0
c-6.0293 6.02148 -6.0293 15.7783 0 21.7998l108.53 108.545c6.01465 6.01465 15.7637 6.01465 21.793 0l73.1035 -73.1104v37.5117c0 8.51172 6.89941 15.418 15.4258 15.418c8.51953 0 15.4258 -6.90625 15.4258 -15.418v-68.3418zM463.39 165.448
c2.18262 -2.1748 3.64453 -4.94922 4.25977 -7.97852c0.464844 -2.35547 0.682617 -4.72461 0.711914 -7.06445v-79.7852c0 -20.5703 -16.7305 -37.2871 -37.2637 -37.2871h-79.8076c-10.3271 0 -20.3008 4.36523 -27.335 11.9844
c-6.38184 6.92969 -9.92969 15.9131 -9.92969 25.3027v58.584c0 14.2188 -10.8965 26.0977 -24.9727 27.4404c-7.16113 -0.682617 -13.4463 -4.06445 -17.9531 -9.09668c-2.00195 4.70996 -5.44434 8.72168 -9.9668 11.3916l-0.322266 0.179688l0.165039 0.322266
c3.34473 6.64453 3.46484 14.3389 0.382812 21.0811c-3.08203 6.77148 -8.98438 11.7061 -16.1758 13.5215l-0.345703 0.0966797l0.0605469 0.352539c1.31934 7.30469 -0.712891 14.7139 -5.56445 20.3311c-4.64258 5.35449 -11.3838 8.42188 -18.501 8.42188
l-1.19238 -0.0302734l-0.0371094 0.360352c-0.802734 7.39355 -4.83008 13.9336 -11.084 17.9453c-3.9375 2.54199 -8.50488 3.88477 -13.1914 3.88477c-0.262695 0 -0.509766 -0.0595703 -0.772461 -0.0595703l83.5791 83.5645
c2.91797 2.89453 6.8252 4.52246 10.9121 4.52246s7.99414 -1.62793 10.8965 -4.52246zM262.025 139.854c0.584961 -4.04199 -0.697266 -8.13672 -3.47949 -11.0918l-7.19141 -7.69434l7.19141 -7.7168c2.78223 -2.98438 4.05762 -7.07129 3.45703 -11.0908
c-0.584961 -4.04199 -2.9541 -7.6123 -6.47168 -9.68945l-9.07422 -5.37695l4.73926 -9.42676c1.81543 -3.6748 1.89062 -7.95605 0.195312 -11.6611c-1.6875 -3.71973 -4.9873 -6.44238 -8.93945 -7.46973l-10.2139 -2.60938l1.875 -10.3711
c0.735352 -4.02051 -0.405273 -8.15234 -3.06738 -11.2344c-2.67676 -3.08984 -6.65137 -4.78418 -10.6934 -4.64941l-10.5293 0.389648l-1.11719 -10.4688c-0.427734 -4.07227 -2.68555 -7.70898 -6.12012 -9.91406c-3.44238 -2.21973 -7.67871 -2.72949 -11.5566 -1.44043
l-9.99609 3.31543l-4.02734 -9.74219c-1.56738 -3.77148 -4.75391 -6.63672 -8.66895 -7.77637c-3.92188 -1.13281 -8.14453 -0.480469 -11.5039 1.85938l-8.6543 6.0293l-6.60645 -8.21875c-2.55762 -3.1875 -6.42773 -5.03223 -10.5068 -5.03223
c-4.08691 0 -7.94141 1.84473 -10.499 5.03223l-6.61426 8.21875l-8.6543 -6.0293c-3.35254 -2.32422 -7.58984 -3.00684 -11.4961 -1.85938c-3.91504 1.13965 -7.10938 4.00488 -8.66992 7.77637l-4.01953 9.74219l-9.99609 -3.31543
c-3.88477 -1.28906 -8.12988 -0.779297 -11.5645 1.43262c-3.43457 2.21289 -5.68457 5.84961 -6.11914 9.91406l-1.11035 10.4688l-10.5439 -0.389648c-4.0791 -0.149414 -8.00879 1.55273 -10.6865 4.64258c-2.66992 3.08203 -3.80957 7.22168 -3.07422 11.2334
l1.88184 10.3721l-10.2139 2.61719c-3.95996 1.01953 -7.23633 3.74902 -8.93945 7.4541c-1.70215 3.7041 -1.61914 8.02441 0.203125 11.6543l4.73145 9.44141l-9.07422 5.37695c-3.50195 2.07715 -5.88672 5.63965 -6.47168 9.68164
c-0.577148 4.0498 0.705078 8.12891 3.4873 11.0986l7.18457 7.7168l-7.18457 7.69434c-2.78223 2.96973 -4.06445 7.05664 -3.4873 11.0986c0.578125 4.04297 2.96289 7.62012 6.47168 9.68164l9.07422 5.39258l-4.73145 9.42676
c-1.82227 3.65137 -1.90527 7.93359 -0.203125 11.6465c1.69531 3.71875 4.97949 6.45605 8.93945 7.46875l10.2139 2.60254l-1.88184 10.3711c-0.735352 4.02734 0.404297 8.15234 3.07422 11.2344c2.67773 3.08984 6.64453 4.76172 10.6865 4.64941l10.5664 -0.389648
l1.125 10.4766c0.427734 4.06445 2.68555 7.70117 6.12012 9.90625c3.43457 2.21973 7.67871 2.74512 11.5557 1.44727l9.99707 -3.3291l4.02734 9.74121c1.55957 3.7793 4.74707 6.63672 8.66113 7.78418c3.91504 1.14746 8.14453 0.464844 11.5039 -1.85938
l8.6543 -6.02246l6.60742 8.21973c2.5498 3.17969 6.41895 5.03125 10.499 5.03125c4.08691 0 7.94922 -1.85156 10.5137 -5.03125l6.60645 -8.21973l8.6543 6.02246c3.34473 2.33203 7.58203 3.01465 11.5039 1.87402c3.90723 -1.1543 7.09473 -4.01172 8.6543 -7.79102
l4.02734 -9.74219l10.0039 3.33008c3.87695 1.29688 8.12207 0.772461 11.5645 -1.44727c3.42676 -2.20508 5.67676 -5.84961 6.10449 -9.90723l1.125 -10.4834l10.5361 0.389648c4.08691 0.134766 8.02441 -1.56738 10.6865 -4.64941
c2.66992 -3.08203 3.80957 -7.22168 3.07422 -11.2344l-1.88965 -10.3711l10.2217 -2.625c3.95215 -1.0127 7.22949 -3.75 8.93164 -7.46191c1.70215 -3.71973 1.62793 -8.00879 -0.202148 -11.6465l-4.73242 -9.44141l9.08203 -5.35449
c3.49414 -2.06934 5.88672 -5.6543 6.46387 -9.68164zM56.7393 142.065c0 -7.09375 8.0918 -18.9053 34.5645 -18.8975c16.6191 0 32.7051 8.09863 32.7051 26.8018c0 13.6641 -9.08203 19.8057 -22.3184 23.4131l-13.0107 3.50195
c-5.3623 1.41016 -8.42188 2.94043 -8.42188 6.44238c0 3.60742 3.93652 5.24902 8.19629 5.24902c12.4795 0 12.5918 -9.62891 21.0137 -9.62891c6.23145 0 10.9414 3.84766 10.9414 9.95898c0 13.2295 -18.8164 16.7314 -33.3721 16.7314
c-21.876 0 -30.6348 -12.3516 -30.6348 -25.4902c0 -11.0312 6.8916 -18.4863 19.4834 -22.0781l16.7305 -4.83691c4.59766 -1.29785 6.8916 -2.61719 6.8916 -5.78223c0 -4.84473 -4.58203 -6.56934 -9.7334 -6.56934c-12.3662 0 -13.4541 11.4668 -22.4229 11.4668
c-6.12695 0 -10.6123 -4.16992 -10.6123 -10.2822zM115.595 36.416c6.44922 0 10.8281 3.74219 10.8359 10.1914c0 6.46387 -4.37988 10.1689 -10.8291 10.1689h-26.3672v46.2852c0 8.42969 -4.81445 13.5664 -12.5762 13.5664
c-7.76953 0 -12.5918 -5.15918 -12.5918 -13.5664v-51.6475c0 -10.4834 4.59766 -14.998 14.3311 -14.998h37.1973zM130.488 133.771c0 -5.90918 5.79688 -10.1768 11.4883 -10.1768c3.9375 0 8.85742 1.74805 10.1768 6.24023l1.74023 5.79688h26.4727l1.75391 -5.79688
c1.30566 -4.49219 6.24023 -6.24023 10.1699 -6.24023c5.69141 0 11.4883 4.26758 11.4883 10.1768c0 3.59277 -2.07715 9.41211 -3.93652 14.6533l-16.7393 46.6084c-2.40723 6.56934 -5.67676 10.1768 -12.0283 10.1768h-7.87402
c-6.33691 0 -9.62988 -3.60742 -12.0371 -10.1768l-16.7383 -46.6084c-1.85938 -5.24121 -3.93652 -11.0605 -3.93652 -14.6533zM194.817 36.416c7.54395 0 10.9336 3.66699 10.9336 9.13379c0 5.48242 -3.38965 9.19434 -10.9336 9.19434h-30.4248v12.5908h23.4199
c7.55176 0 10.9336 3.72754 10.9336 9.20996c0 5.48145 -3.38184 9.20117 -10.9336 9.20117h-23.4199v11.0469h29.2168c7.55176 0 10.9492 3.72656 10.9492 9.20117s-3.39746 9.19434 -10.9492 9.19434h-40.0391c-9.74121 0 -14.3311 -4.49219 -14.3311 -14.9834v-48.791
c0 -10.4834 4.58984 -14.998 14.3311 -14.998h41.2471zM167.242 180.155l8.54199 -28.7676h-17.2939l8.54199 28.7676h0.209961z" />
    <glyph glyph-name="uniF109" unicode="&#xf109;" 
d="M409.72 82.0137c26.2393 -13.124 42.5469 -39.5088 42.5469 -68.8467v-25.9668c0 -40.499 -128.384 -51.2002 -196.267 -51.2002s-196.267 10.7012 -196.267 51.2002v27.6309c0 28.1943 15.3682 54.084 40.124 67.5928l76.126 41.5225
c7.24414 3.95996 11.75 11.5371 11.75 19.7979v28.2363c-5.71777 7.48438 -22.0762 30.8057 -29.8926 61.7559c-8.05566 6.45996 -12.7744 16.1455 -12.7744 26.5303v34.1338c0 8.2168 3.07227 16.1787 8.5332 22.3994v45.3887
c-0.477539 4.69336 -2.35449 32.6406 17.8525 55.6885c17.5273 19.9854 45.9688 30.123 84.5479 30.123s67.0205 -10.1377 84.5479 -30.1309c20.207 -23.0488 18.3301 -50.9873 17.8525 -55.6807v-45.3887c5.46094 -6.2207 8.5332 -14.1826 8.5332 -22.3994v-34.1338
c0 -13.4395 -7.81641 -25.3438 -19.8574 -30.8652c-6.16113 -17.9287 -14.6348 -34.5508 -25.207 -49.4844c-2.125 -3.00391 -4.18164 -5.72559 -6.13574 -8.11523v-28.8516c0 -8.60156 4.77832 -16.333 12.4668 -20.1807zM435.2 -12.7998v25.9668
c0 22.8438 -12.6895 43.375 -33.1182 53.5889l-81.5186 40.7559c-13.5088 6.75781 -21.8965 20.335 -21.8965 35.4385v35.2002l2.12402 2.42383c2.14258 2.43164 4.6084 5.61426 7.14258 9.20703c10.3428 14.5918 18.4746 30.9932 24.1836 48.751l1.36523 4.22363
l4.25 1.30566c7.25293 2.23633 12.1338 8.75586 12.1338 16.2051v34.1338c0 4.78711 -2.03027 9.25 -5.7168 12.5781l-2.81641 2.54297l0.0771484 54.2627c0.0166016 0.205078 2.76465 24.2354 -13.8496 43.0166c-14.1572 16.0176 -38.2383 24.1328 -71.5605 24.1328
c-33.4424 0 -57.5742 -8.1748 -71.7139 -24.3027c-16.623 -18.9619 -13.7217 -42.6162 -13.6963 -42.8467l0.0771484 -1.11719v-53.1455l-2.81641 -2.53516c-3.68652 -3.33594 -5.7168 -7.79883 -5.7168 -12.5859v-34.1338c0 -5.76855 2.95215 -11.1191 7.89258 -14.3105
l2.91016 -1.87695l0.776367 -3.37891c7.97852 -34.7393 28.8936 -60.041 29.0986 -60.2881l1.98828 -2.37305v-34.2949c0 -14.498 -7.91016 -27.8359 -20.6504 -34.791l-76.126 -41.5225c-19.2598 -10.4961 -31.2236 -30.6602 -31.2236 -52.5996v-27.6309
c0 -11.5801 63.249 -34.1338 179.2 -34.1338s179.2 22.5537 179.2 34.1338z" />
    <glyph glyph-name="uniF11B" unicode="&#xf11b;" 
d="M426.667 302.933c5.12012 0 8.5332 -3.41309 8.5332 -8.53223v-76.8008c0 -5.11914 -3.41309 -8.53223 -8.5332 -8.53223v-34.1338c0 -37.5469 -30.7197 -68.2666 -68.2666 -68.2666h-40.96c5.97363 -34.9873 6.82617 -69.9736 6.82617 -101.547
c0 -37.5469 -29.8662 -69.1201 -66.5596 -69.1201h-1.70703h-1.70703c-36.6934 0.852539 -66.5596 31.5732 -66.5596 69.1201c0 30.7197 0.853516 66.5596 6.82617 101.547h-40.96c-37.5469 0 -68.2666 30.7197 -68.2666 68.2666v34.1338
c-5.12012 0 -8.5332 3.41309 -8.5332 8.53223v76.8008c0 5.11914 3.41309 8.53223 8.5332 8.53223v119.468c0 14.5068 11.0928 25.5996 25.5996 25.5996h290.135c14.5068 0 25.5996 -11.0928 25.5996 -25.5996v-119.468zM93.8672 285.867v-59.7334h324.267v59.7334h-324.267
zM102.4 422.4v-119.468h307.198v119.468c0 5.11914 -3.41309 8.53223 -8.53223 8.53223h-17.0674v-102.399c0 -5.12012 -3.41309 -8.5332 -8.5332 -8.5332s-8.5332 3.41309 -8.5332 8.5332v102.399h-17.0664v-76.7998c0 -5.12012 -3.41309 -8.5332 -8.5332 -8.5332
s-8.5332 3.41309 -8.5332 8.5332v76.7998h-17.0674v-102.399c0 -5.12012 -3.41309 -8.5332 -8.5332 -8.5332s-8.5332 3.41309 -8.5332 8.5332v102.399h-17.0674v-76.7998c0 -5.12012 -3.41309 -8.5332 -8.53223 -8.5332c-5.12012 0 -8.5332 3.41309 -8.5332 8.5332v76.7998
h-17.0674v-102.399c0 -5.12012 -3.41309 -8.5332 -8.5332 -8.5332c-5.11914 0 -8.53223 3.41309 -8.53223 8.5332v102.399h-17.0684v-76.7998c0 -5.12012 -3.41309 -8.5332 -8.5332 -8.5332s-8.5332 3.41309 -8.5332 8.5332v76.7998h-17.0664v-102.399
c0 -5.12012 -3.41309 -8.5332 -8.5332 -8.5332s-8.5332 3.41309 -8.5332 8.5332v102.399h-17.0664v-76.7998c0 -5.12012 -3.41309 -8.5332 -8.5332 -8.5332s-8.5332 3.41309 -8.5332 8.5332v76.7998h-17.0674c-4.26562 0 -8.53223 -4.26562 -8.53223 -8.53223z
M408.747 174.933v34.1348h-306.347v-17.0674h42.667c5.11914 0 8.53223 -3.41406 8.53223 -8.53418s-3.41309 -8.5332 -8.53223 -8.5332h-42.667c0 -5.97754 1.04785 -11.7217 2.95215 -17.0664h22.6475c5.12012 0 8.5332 -3.41309 8.5332 -8.5332
s-3.41309 -8.5332 -8.5332 -8.5332h-12.4717c9.39062 -10.458 22.9951 -17.0664 38.0703 -17.0664h51.2002c2.56055 0 5.12012 -0.853516 6.82715 -3.41309c1.70703 -1.70703 2.55957 -4.26758 1.70703 -6.82715c-6.82617 -36.6934 -8.5332 -75.0928 -8.5332 -108.373
c0 -28.1602 22.1865 -52.0527 49.4932 -52.0527h2.55957c27.3066 0.852539 50.3467 23.8926 49.4932 52.0527c0 33.2803 -1.70605 71.6797 -8.53223 108.373c-0.853516 2.55957 0 5.12012 1.70605 6.82715c1.70703 1.70605 4.26758 3.41309 6.82715 3.41309h51.2002
c28.1602 0 51.2002 23.04 51.2002 51.1992zM256 -12.7998c-18.7734 0 -34.1328 15.3594 -34.1328 34.1328s15.3594 34.1328 34.1328 34.1328s34.1328 -15.3594 34.1328 -34.1328s-15.3594 -34.1328 -34.1328 -34.1328zM256 38.4004
c-9.38672 0 -17.0674 -7.68066 -17.0674 -17.0674s7.68066 -17.0674 17.0674 -17.0674s17.0674 7.68066 17.0674 17.0674s-7.68066 17.0674 -17.0674 17.0674z" />
    <glyph glyph-name="uniF116" unicode="&#xf116;" 
d="M58.2891 256.499h-0.000976562v-2.23242h-12.1318v47.2578c0 29.3262 23.8574 53.1836 53.1836 53.1836h313.319c29.3262 0 53.1836 -23.8574 53.1836 -53.1836v-47.2578h-12.1318v2.23242c0 26.7217 -21.7393 48.4619 -48.4609 48.4619h-108.787
c-16.8926 0 -31.7852 -8.69238 -40.4629 -21.835c-8.67676 13.1416 -23.5703 21.835 -40.4629 21.835h-108.786c-26.7227 0 -48.4619 -21.7402 -48.4619 -48.4619zM491.631 231.637c11.2324 0 20.3691 -9.13672 20.3691 -20.3672v-118.239
c0 -11.2305 -9.13672 -20.3672 -20.3672 -20.3672h-8.47852l10.0176 -28.2734c2.08789 -5.88965 -0.996094 -12.3574 -6.88574 -14.4443c-1.25 -0.442383 -2.52539 -0.65332 -3.78027 -0.65332c-4.6582 0 -9.02148 2.89844 -10.665 7.54004l-12.6963 35.832h-406.289
l-12.6963 -35.832c-1.64355 -4.6416 -6.00781 -7.54004 -10.665 -7.54004c-1.25488 0 -2.53027 0.210938 -3.78027 0.65332c-5.88867 2.08594 -8.97363 8.55371 -6.88574 14.4443l10.0176 28.2734h-8.47852c-11.2305 0 -20.3672 9.13672 -20.3672 20.3672v118.239
c0 11.2305 9.13672 20.3672 20.3672 20.3672h471.264zM296.463 282.33h108.787c14.2422 0 25.8301 -11.5869 25.8301 -25.8301v-2.23145h-160.448v2.23145c0 14.2432 11.5879 25.8301 25.8311 25.8301zM106.751 282.33h108.786c14.2441 0 25.8311 -11.5869 25.8311 -25.8301
v-2.23145h-160.448v2.23047c0 14.2422 11.5879 25.8311 25.8311 25.8311z" />
    <glyph glyph-name="uniF101" unicode="&#xf101;" 
d="M362.936 109.606h82.5449v-82.5449h-82.4443h-0.100586v82.5449zM428.951 43.5908v49.4863h-49.4863v-49.4863h49.4863zM66.0156 109.606h82.5449v-82.5449h-82.5449v82.5449zM132.031 43.5908v49.4863h-49.4863v-49.4863h49.4863zM512 336.479
c0 -25.3984 -13.6064 -47.6719 -33.9658 -59.9688v-323.729h33.4619v-16.5293h-511.496v16.5293h33.4609v324.031c-20.0566 12.2959 -33.4609 34.4697 -33.4609 59.666l0.302734 22.9795l26.6074 88.29h457.676l27.4141 -90.709v-20.5605zM39.1055 431.319
l-19.7539 -66.0156h473.196l-20.1572 66.0156h-433.285zM371.604 348.774h-107.339h-0.100586v-12.2959c0 -29.6309 24.0879 -53.7197 53.7197 -53.7197c29.6309 0 53.7197 24.0889 53.7197 53.7197v12.2959zM247.735 348.774h-107.339h-0.100586v-12.2959
c0 -29.6309 24.0879 -53.7197 53.7197 -53.7197s53.7197 24.0889 53.7197 53.7197v12.2959zM16.5293 336.479c0 -29.6309 24.0879 -53.7197 53.6191 -53.7197c29.6309 0 53.7197 24.0889 53.7197 53.7197v12.2959h-107.339v-12.2959zM329.978 -47.2188v231.005h-148.459
v-231.005v0h148.459zM461.707 -47.2188v316.271c-6.34961 -1.81348 -12.9004 -2.82227 -19.7539 -2.82227c-26.8096 0 -50.1924 15.1182 -61.9844 37.292c-11.8936 -22.1738 -35.1748 -37.292 -61.9844 -37.292s-50.1924 15.1182 -61.9844 37.1914
c-11.792 -22.0732 -35.0742 -37.1914 -61.8838 -37.1914s-50.1914 15.1182 -61.9844 37.292c-11.8926 -22.1738 -35.1748 -37.292 -61.9834 -37.292c-6.95508 0 -13.707 1.10938 -20.1582 3.02441v-316.473h114.999v247.534h181.518v-247.534h114.999h0.201172z
M441.852 282.759c29.5312 0 53.6191 24.0889 53.6191 53.7197v12.2959h-107.339v-12.2959c0 -29.6309 24.0889 -53.7197 53.7197 -53.7197zM247.534 225.008v16.5293h16.5293v-16.5293h-16.5293zM214.476 225.008v16.5293h16.5293v-16.5293h-16.5293zM280.491 225.008
v16.5293h16.5293v-16.5293h-16.5293z" />
    <glyph glyph-name="uniF108" unicode="&#xf108;" 
d="M507.346 354.909c0 -38.084 -23.0215 -70.8613 -55.8643 -85.2617v-284.914c0 -26.8662 -21.8574 -48.7334 -48.7334 -48.7334h-349.36c-26.8662 0 -48.7334 21.8672 -48.7334 48.7422v349.361c0 26.8662 21.8672 48.7324 48.7334 48.7324h272.067
c11.8975 37.7207 47.1973 65.1641 88.7998 65.1641c51.3301 0 93.0908 -41.7607 93.0908 -93.0908zM432.873 -15.2666v278.965c-6.01367 -1.22852 -12.2422 -1.87988 -18.6182 -1.87988c-51.3311 0 -93.0908 41.7607 -93.0908 93.0908
c0 3.14648 0.166992 6.24609 0.464844 9.30859h-268.241c-16.6074 0 -30.1152 -13.5068 -30.1152 -30.1143v-349.37c0 -16.6074 13.5078 -30.1152 30.1152 -30.1152h349.37c16.6074 0 30.1152 13.5078 30.1152 30.1152zM438.961 284.737
c28.9326 10.2217 49.7666 37.7764 49.7666 70.1719c0 41.0625 -33.4102 74.4727 -74.4727 74.4727c-35.375 0 -65.0059 -24.8086 -72.5557 -57.9307c-1.27539 -5.58496 -1.91699 -11.1426 -1.91699 -16.542c0 -41.0625 33.4102 -74.4727 74.4727 -74.4727
c2.29004 0 4.55176 0.139648 6.79492 0.334961c1.24805 0.121094 2.50488 0.307617 3.75195 0.493164c0.866211 0.130859 1.74121 0.242188 2.59766 0.400391c1.66602 0.307617 3.32324 0.669922 4.9707 1.08887c0.334961 0.0839844 0.679688 0.167969 1.01465 0.260742
c1.87109 0.512695 3.73242 1.07129 5.57617 1.72266z" />
    <glyph glyph-name="uniF10E" unicode="&#xf10e;" 
d="M176.562 56.8633c0 -35.3545 -28.6455 -64 -64 -64c-35.3486 0 -64 28.6455 -64 64c0 35.3486 28.6514 64 64 64c35.3545 0 64 -28.6514 64 -64zM91.4287 56.8633c0 -11.7031 9.46094 -21.1592 21.1328 -21.1484c11.6875 0 21.1543 9.4668 21.1543 21.1484
c0 11.666 -9.48242 21.1328 -21.1543 21.1328s-21.1328 -9.4668 -21.1328 -21.1328zM329.143 272.279h134.854l38.8604 -59.4287v-96.0049h-64c-7.7793 0 -14.7754 -3.29102 -19.7754 -8.5c-9.56055 14.916 -29.502 34.2256 -68.8057 34.2256
c-17.6328 0 -21.1338 -0.867188 -21.1338 -0.867188v130.575zM475.429 171.703v43.9951l-18.2861 29.1475h-54.8564v-73.1426h73.1426zM26.8535 180.846l0.575195 54.8623h-27.4287v36.5713h267.432l25.1396 54.8574h205.715l-26.5723 -36.5713h-160.856v-152.012
c-35.4277 -12.5654 -44.0117 -58.2793 -44.0117 -58.2793h-69.1299c-20.0049 72.5889 -170.862 100.571 -170.862 100.571zM438.857 98.5596h64c5.04102 0 9.14258 -4.10059 9.14258 -9.14258v-18.2852c0 -5.04688 -4.10156 -9.14355 -9.14258 -9.14355h-64
c-5.05273 0 -9.14355 4.09668 -9.14355 9.14355v18.2852c0 0.78418 0.266602 1.47363 0.450195 2.20508c0.99707 3.94922 4.44043 6.9375 8.69336 6.9375zM414.276 56.8633c0 -35.3545 -28.6309 -64 -63.9844 -64c-35.3545 0 -64 28.6455 -64 64c0 35.3486 28.6455 64 64 64
c28.7549 0 53.0596 -18.96 61.1416 -45.0508c1.60938 -5.20312 2.49707 -10.71 2.72168 -16.3945c0.0263672 -0.856445 0.121094 -1.6875 0.121094 -2.55469zM329.143 56.8633c0 -11.7031 9.46191 -21.1592 21.1338 -21.1484c11.6924 0 21.1533 9.4668 21.1533 21.1484
c0 11.666 -9.47168 21.1328 -21.1533 21.1328c-11.6719 0 -21.1338 -9.4668 -21.1338 -21.1328zM271.245 331.51l-19.8164 -40.9443h-219.429l30.4688 27.4287h19.8174l25.8975 27.4287h28.959l37.7158 45.7139h35.4277l24.001 -36.5713h27.4287z" />
  </font>
</defs>
</svg>
